The Swan Princess: A Royal Myztery (2018)

Posted By: Without
SD / WEB-DL IMDb
The Swan Princess: A Royal Myztery (2018)

The Swan Princess: A Royal Myztery (2018)
HDRip | AVI | 720x400 | XviD@1748 kb/s | English AC3@384 kb/s | 6 channels | 1 h 19 min | 1.18 GB
Genre: Animation, Adventure, Comedy

When a mysterious "Z" begins appearing as a mark on everyone in the kingdom, Odette, Derek, Alise, Lucas and all their friends work together to find out what it means.



General
The Swan Princess A Royal Myztery 2018.HDRip.XviD.AC3-EVO.avi
Format : AVI
Format/Info : Audio Video Interleave
File size : 1.18 GiB
Duration : 1 h 19 min
Overall bit rate : 2 141 kb/s
Writing library : VirtualDub build 32593/release

Video
ID : 0
Format : MPEG-4 Visual
Format profile : Advanced Simple@L5
Format settings, BVOP : 2
Format settings, QPel : No
Format settings, GMC : No warppoints
Format settings, Matrix : Default (H.263)
Muxing mode : Packed bitstream
Codec ID : XVID
Codec ID/Hint : XviD
Duration : 1 h 19 min
Bit rate : 1 748 kb/s
Width : 720 pixels
Height : 400 pixels
Display aspect ratio : 16:9
Frame rate : 23.976 (24000/1001) FPS
Color space : YUV
Chroma subsampling : 4:2:0
Bit depth : 8 bits
Scan type : Progressive
Compression mode : Lossy
Bits/(Pixel*Frame) : 0.253
Stream size : 988 MiB (82%)
Writing library : XviD 66

Audio
ID : 1
Format : AC-3
Format/Info : Audio Coding 3
Mode extension : CM (complete main)
Format settings, Endianness : Big
Codec ID : 2000
Duration : 1 h 19 min
Bit rate mode : Constant
Bit rate : 384 kb/s
Channel(s) : 6 channels
Channel positions : Front: L C R, Side: L R, LFE
Sampling rate : 48.0 kHz
Frame rate : 31.250 FPS (1536 spf)
Bit depth : 16 bits
Compression mode : Lossy
Stream size : 217 MiB (18%)
Alignment : Aligned on interleaves
Interleave, duration : 42 ms (1.00 video frame)
Interleave, preload duration : 512 ms


HDRip Screenshots

The Swan Princess: A Royal Myztery (2018)

The Swan Princess: A Royal Myztery (2018)

The Swan Princess: A Royal Myztery (2018)

The Swan Princess: A Royal Myztery (2018)


Come Visit My Blog (•‿•)