Tags
Language
Tags

Theeb‎‎ (2014)

Posted By: Tavaz
720p (HD) / BDRip IMDb
Theeb‎‎ (2014)

Theeb‎‎ (2014)
BDRip | MKV | 1280x536 | Arabic | H264 @ 5867 kbps | DTS @ 1509 kbps | 1 h 40 min | 5.31 GiB
Genre: Adventure, Drama, Thriller

In the Ottoman province of Hijaz during World War I, a young Bedouin boy experiences a greatly hastened coming of age as he embarks on a perilous desert journey to guide a British officer to his secret destination.

Theeb.2014.720p.BluRay.DTS.x264-FuzerHD.mkv (5.3 GB)



General
Unique ID : 175092740571351279428978840490539782130 (0x83B9A29D3226B65216DA8F9124F48FF2)
Complete name : ./Theeb.2014.720p.BluRay.DTS.x264-FuzerHD.mkv
Format : Matroska
Format version : Version 2
File size : 5.31 GiB
Duration : 1 h 40 min
Overall bit rate : 7 526 kb/s
Encoded date : UTC 2016-05-10T16:35:06Z
Writing application : HandBrake 0.10.5 2016021100
Writing library : Lavf55.12.0

Video
ID : 1
Format : AVC
Format/Info : Advanced Video Codec
Format profile : High@L4.2
Format settings : CABAC / 4 Ref Frames
Format settings, CABAC : Yes
Format settings, RefFrames : 4 frames
Codec ID : V_MPEG4/ISO/AVC
Duration : 1 h 40 min
Bit rate : 5 867 kb/s
Nominal bit rate : 6 221 kb/s
Width : 1 280 pixels
Height : 536 pixels
Display aspect ratio : 2.40:1
Frame rate mode : Constant
Frame rate : 23.976 (24000/1001) FPS
Color space : YUV
Chroma subsampling : 4:2:0
Bit depth : 8 bits
Scan type : Progressive
Bits/(Pixel*Frame) : 0.357
Stream size : 4.14 GiB (78%)
Writing library : x264 core 142 r2479 dd79a61
Encoding settings : cabac=1 / ref=2 / deblock=1:0:0 / analyse=0x3:0x113 / me=hex / subme=4 / psy=1 / psy_rd=1.00:0.00 / mixed_ref=0 / me_range=16 / chroma_me=1 / trellis=1 / 8x8dct=1 / cqm=0 / deadzone=21,11 / fast_pskip=1 / chroma_qp_offset=0 / threads=12 / lookahead_threads=3 / sliced_threads=0 / nr=0 / decimate=1 / interlaced=0 / bluray_compat=0 / constrained_intra=0 / bframes=3 / b_pyramid=2 / b_adapt=1 / b_bias=0 / direct=1 / weightb=1 / open_gop=0 / weightp=1 / keyint=240 / keyint_min=24 / scenecut=40 / intra_refresh=0 / rc_lookahead=20 / rc=abr / mbtree=1 / bitrate=6221 / ratetol=1.0 / qcomp=0.60 / qpmin=0 / qpmax=69 / qpstep=4 / vbv_maxrate=62500 / vbv_bufsize=78125 / nal_hrd=none / filler=0 / ip_ratio=1.40 / aq=1:1.00
Default : Yes
Forced : No
Color range : Limited
Color primaries : BT.709
Transfer characteristics : BT.709
Matrix coefficients : BT.709

Audio
ID : 2
Format : DTS
Format/Info : Digital Theater Systems
Mode : 16
Format settings, Endianness : Big
Codec ID : A_DTS
Duration : 1 h 40 min
Bit rate mode : Constant
Bit rate : 1 509 kb/s
Channel(s) : 6 channels
Channel positions : Front: L C R, Side: L R, LFE
Sampling rate : 48.0 kHz
Frame rate : 93.750 FPS (512 SPF)
Bit depth : 24 bits
Compression mode : Lossy
Stream size : 1.06 GiB (20%)
Title : Surround
Language : Arabic
Default : Yes
Forced : No

Menu
00:00:00.000 : :Chapter 1
00:08:15.453 : :Chapter 2
00:17:19.663 : :Chapter 3
00:26:19.661 : :Chapter 4
00:33:21.916 : :Chapter 5
00:45:38.402 : :Chapter 6
00:52:47.581 : :Chapter 7
01:02:20.528 : :Chapter 8
01:08:04.121 : :Chapter 9
01:17:27.893 : :Chapter 10
01:23:50.358 : :Chapter 11
01:35:04.448 : :Chapter 12
01:40:47.791 : :Chapter 13





Theeb‎‎ (2014)


Theeb‎‎ (2014)


Theeb‎‎ (2014)


Theeb‎‎ (2014)


Theeb‎‎ (2014)