Tags
Language
Tags

Things We Lost in the Fire (2007)

Posted By: Tavaz
720p (HD) / BDRip IMDb
Things We Lost in the Fire (2007)

Things We Lost in the Fire (2007)
BDRip | MKV | 1280x542 | English | H264 @ 5685 kbps | AC-3 @ 640 kbps | 1 h 58 min | 5.33 GiB
Genre: Drama

A recent widow invites her husband's troubled best friend to live with her and her two children. As he gradually turns his life around, he helps the family cope and confront their loss.

Things.We.Lost.in.the.Fire.2007.720p.BluRay.x264.AC3-FuzerHD.mkv (5.3 GB)



General
Unique ID : 126568409954874720660992802456312458829 (0x5F38306730AFFF4E5866D1D11673AE4D)
Complete name : ./Things.We.Lost.in.the.Fire.2007.720p.BluRay.x264.AC3-FuzerHD.mkv
Format : Matroska
Format version : Version 2
File size : 5.33 GiB
Duration : 1 h 58 min
Overall bit rate : 6 454 kb/s
Movie name : Things We Lost in the Fire
Encoded date : UTC 2016-04-03T13:30:54Z
Writing application : HandBrake 0.10.5 2016021100
Writing library : Lavf55.12.0

Video
ID : 1
Format : AVC
Format/Info : Advanced Video Codec
Format profile : High@L5
Format settings : CABAC / 4 Ref Frames
Format settings, CABAC : Yes
Format settings, RefFrames : 4 frames
Codec ID : V_MPEG4/ISO/AVC
Duration : 1 h 58 min
Bit rate : 5 685 kb/s
Nominal bit rate : 6 045 kb/s
Width : 1 280 pixels
Height : 542 pixels
Display aspect ratio : 2.35:1
Frame rate mode : Constant
Frame rate : 23.976 (24000/1001) FPS
Color space : YUV
Chroma subsampling : 4:2:0
Bit depth : 8 bits
Scan type : Progressive
Bits/(Pixel*Frame) : 0.342
Stream size : 4.69 GiB (88%)
Writing library : x264 core 142 r2479 dd79a61
Encoding settings : cabac=1 / ref=2 / deblock=1:0:0 / analyse=0x3:0x113 / me=hex / subme=4 / psy=1 / psy_rd=1.00:0.00 / mixed_ref=0 / me_range=16 / chroma_me=1 / trellis=1 / 8x8dct=1 / cqm=0 / deadzone=21,11 / fast_pskip=1 / chroma_qp_offset=0 / threads=12 / lookahead_threads=3 / sliced_threads=0 / nr=0 / decimate=1 / interlaced=0 / bluray_compat=0 / constrained_intra=0 / bframes=3 / b_pyramid=2 / b_adapt=1 / b_bias=0 / direct=1 / weightb=1 / open_gop=0 / weightp=1 / keyint=240 / keyint_min=24 / scenecut=40 / intra_refresh=0 / rc_lookahead=20 / rc=abr / mbtree=1 / bitrate=6045 / ratetol=1.0 / qcomp=0.60 / qpmin=0 / qpmax=69 / qpstep=4 / vbv_maxrate=168750 / vbv_bufsize=168750 / nal_hrd=none / filler=0 / ip_ratio=1.40 / aq=1:1.00
Default : Yes
Forced : No
Color range : Limited
Color primaries : BT.709
Transfer characteristics : BT.709
Matrix coefficients : BT.709

Audio
ID : 2
Format : AC-3
Format/Info : Audio Coding 3
Format settings, Endianness : Big
Codec ID : A_AC3
Duration : 1 h 58 min
Bit rate mode : Constant
Bit rate : 640 kb/s
Channel(s) : 6 channels
Channel positions : Front: L C R, Side: L R, LFE
Sampling rate : 48.0 kHz
Frame rate : 31.250 FPS (1536 SPF)
Bit depth : 16 bits
Compression mode : Lossy
Stream size : 541 MiB (10%)
Title : Surround
Language : English
Service kind : Complete Main
Default : Yes
Forced : No

Menu
00:00:00.000 : :Chapter 1
00:07:18.021 : :Chapter 2
00:14:27.283 : :Chapter 3
00:21:33.083 : :Chapter 4
00:28:19.698 : :Chapter 5
00:37:03.638 : :Chapter 6
00:44:17.863 : :Chapter 7
00:52:10.460 : :Chapter 8
00:58:35.970 : :Chapter 9
01:07:20.077 : :Chapter 10
01:14:44.063 : :Chapter 11
01:20:52.556 : :Chapter 12
01:27:39.754 : :Chapter 13
01:33:28.644 : :Chapter 14
01:39:55.030 : :Chapter 15
01:45:29.364 : :Chapter 16
01:51:53.790 : :Chapter 17





Things We Lost in the Fire (2007)


Things We Lost in the Fire (2007)


Things We Lost in the Fire (2007)


Things We Lost in the Fire (2007)


Things We Lost in the Fire (2007)