Things Are Tough All Over (1982)

Posted By: Without
Things Are Tough All Over (1982)

Things Are Tough All Over (1982)
WEB-DL 1080p | MKV | 1920x1080 | AVC@13.7 Mb/s | English AC3@224 kb/s
Subs: English | 2 channels | 1 h 29 min | 8.75 GB
Genre: Comedy, Action

Cheech and Chong are hired to drive a limo from Chicago to Las Vegas by two shady Arabs - Mr. Slyman (Cheech) and Prince Habib (Chong). Unbeknownst to them, five million dollars of dirty money has been stuffed throughout the car.



General
Torrents\Things.Are.Tough.All.Over.1982.1080p.AMZN.WEBRip.DDP2.0.x264-ABM\Things.Are.Tough.All.Over.1982.1080p.AMZN.WEB-DL.DDP2.0.x264-ABM.mkv
Format : Matroska
Format version : Version 4 / Version 2
File size : 8.75 GiB
Duration : 1 h 29 min
Overall bit rate mode : Variable
Overall bit rate : 14.0 Mb/s
Encoded date : UTC 2017-10-23 05:52:21
Writing application : mkvmerge v13.0.0 ('The Juggler') 64bit
Writing library : libebml v1.3.4 + libmatroska v1.4.5

Video
ID : 1
Format : AVC
Format/Info : Advanced Video Codec
Format profile : High@L4
Format settings, CABAC : Yes
Format settings, ReFrames : 4 frames
Codec ID : V_MPEG4/ISO/AVC
Duration : 1 h 29 min
Bit rate mode : Variable
Bit rate : 13.7 Mb/s
Maximum bit rate : 15.0 Mb/s
Width : 1 920 pixels
Height : 1 080 pixels
Display aspect ratio : 16:9
Frame rate mode : Constant
Frame rate : 23.976 (24000/1001) FPS
Color space : YUV
Chroma subsampling : 4:2:0
Bit depth : 8 bits
Scan type : Progressive
Bits/(Pixel*Frame) : 0.276
Stream size : 8.61 GiB (98%)
Writing library : x264 core 148 r2623 d5b2374
Encoding settings : cabac=1 / ref=4 / deblock=1:-1:-1 / analyse=0x3:0x133 / me=umh / subme=9 / psy=1 / psy_rd=1.00:0.15 / mixed_ref=1 / me_range=24 / chroma_me=1 / trellis=2 / 8x8dct=1 / cqm=0 / deadzone=21,11 / fast_pskip=1 / chroma_qp_offset=-3 / threads=34 / lookahead_threads=5 / sliced_threads=0 / nr=150 / decimate=1 / interlaced=0 / bluray_compat=0 / constrained_intra=0 / bframes=8 / b_pyramid=2 / b_adapt=2 / b_bias=0 / direct=3 / weightb=1 / open_gop=0 / weightp=2 / keyint=120 / keyint_min=61 / scenecut=0 / intra_refresh=0 / rc_lookahead=120 / rc=crf / mbtree=1 / crf=18.0 / qcomp=0.60 / qpmin=0 / qpmax=69 / qpstep=4 / vbv_maxrate=15000 / vbv_bufsize=31250 / crf_max=0.0 / nal_hrd=vbr / filler=0 / ip_ratio=1.40 / aq=3:1.00
Default : Yes
Forced : No
Color range : Limited
Color primaries : BT.709
Transfer characteristics : BT.709
Matrix coefficients : BT.709

Audio
ID : 2
Format : E-AC-3
Format/Info : Enhanced Audio Coding 3
Format settings, Endianness : Big
Codec ID : A_EAC3
Duration : 1 h 29 min
Bit rate mode : Constant
Bit rate : 224 kb/s
Channel(s) : 2 channels
Channel positions : Front: L R
Sampling rate : 48.0 kHz
Frame rate : 187.500 FPS (256 spf)
Compression mode : Lossy
Stream size : 144 MiB (2%)
Language : English
Default : Yes
Forced : No

Text
ID : 3
Format : UTF-8
Codec ID : S_TEXT/UTF8
Codec ID/Info : UTF-8 Plain Text
Duration : 1 h 29 min
Bit rate : 84 b/s
Count of elements : 1395
Stream size : 55.2 KiB (0%)
Language : English
Default : No
Forced : No


WEB-DL 1080p Screenshots

Things Are Tough All Over (1982)

Things Are Tough All Over (1982)

Things Are Tough All Over (1982)

Things Are Tough All Over (1982)

Things Are Tough All Over (1982)


Come Visit My Blog (•‿•)