Tone Bell - Can't Cancel This (2019)

Posted By: Tavaz
720p (HD) / WEBRip IMDb
Tone Bell - Can't Cancel This (2019)

Tone Bell - Can't Cancel This (2019)
WEBRip | MKV | 1280x720 | English | H264 @ 1569 kbps | E-AC-3 @ 224 kbps | 1 h 11 min | 921 MiB
Subtitles: English
Genre: Comedy

Comedian Tone Bell simply wants to live in a world where Alaska is cold, student loans are paid and jelly is free. He's finally found the one place his uncompromising view of this unfair world can't be stopped.

bd118969ff3340898673c882b8fca35f.mkv (920.8 MB)



General
Complete name : ./bd118969ff3340898673c882b8fca35f.mkv
Format : Matroska
Format version : Version 4 / Version 2
File size : 921 MiB
Duration : 1 h 11 min
Overall bit rate : 1 795 kb/s
Encoded date : UTC 2019-02-23 09:24:17
Writing application : mkvmerge v30.1.0 ('Forever And More') 64-bit
Writing library : libebml v1.3.6 + libmatroska v1.4.9

Video
ID : 1
Format : AVC
Format/Info : Advanced Video Codec
Format profile : High@L3.1
Format settings : CABAC / 5 Ref Frames
Format settings, CABAC : Yes
Format settings, RefFrames : 5 frames
Codec ID : V_MPEG4/ISO/AVC
Duration : 1 h 11 min
Bit rate : 1 569 kb/s
Width : 1 280 pixels
Height : 720 pixels
Display aspect ratio : 16:9
Frame rate mode : Constant
Frame rate : 23.976 (24000/1001) FPS
Color space : YUV
Chroma subsampling : 4:2:0
Bit depth : 8 bits
Scan type : Progressive
Bits/(Pixel*Frame) : 0.071
Stream size : 805 MiB (87%)
Language : English
Default : Yes
Forced : No
Color range : Limited
Color primaries : BT.709
Transfer characteristics : BT.709
Matrix coefficients : BT.709

Audio
ID : 2
Format : E-AC-3
Format/Info : Enhanced Audio Coding 3
Format settings, Endianness : Big
Codec ID : A_EAC3
Duration : 1 h 11 min
Bit rate mode : Constant
Bit rate : 224 kb/s
Channel(s) : 2 channels
Channel positions : Front: L R
Sampling rate : 48.0 kHz
Frame rate : 187.500 FPS (256 SPF)
Compression mode : Lossy
Stream size : 115 MiB (12%)
Language : English
Service kind : Complete Main
Default : Yes
Forced : No

Text
ID : 3
Format : UTF-8
Codec ID : S_TEXT/UTF8
Codec ID/Info : UTF-8 Plain Text
Duration : 1 h 11 min
Bit rate : 112 b/s
Count of elements : 1642
Stream size : 58.8 KiB (0%)
Language : English
Default : No
Forced : No





Tone Bell - Can't Cancel This (2019)


Tone Bell - Can't Cancel This (2019)


Tone Bell - Can't Cancel This (2019)


Tone Bell - Can't Cancel This (2019)


Tone Bell - Can't Cancel This (2019)