Tornado Girl (2017) - 奥田民生になりたいボーイと出会う男すべて狂わせるガール

Posted By: Tavaz
720p (HD) / BDRip IMDb
Tornado Girl (2017) - 奥田民生になりたいボーイと出会う男すべて狂わせるガール

Tornado Girl (2017)
BDRip | MKV | 1280x690 | Japanese | H264 @ 6248 kbps | DTS @ 1509 kbps | 1 h 39 min | 5.42 GiB
Subtitles: Chinese
Genre: Comedy, Romance

Koroki is a 35-year old man who admires Japanese singer-songwriter Tamio Okuda and aspires to live like him. He works as an editor at the lifestyle magazine "Mare," where he meets Akari Amami, a mischievous fashion press writer, and falls in love with her at first sight.

02f9a16ed63e4b799073a28abfb45dc1.mkv (5.4 GB)



General
Complete name : ./02f9a16ed63e4b799073a28abfb45dc1.mkv
Format : Matroska
Format version : Version 4 / Version 2
File size : 5.42 GiB
Duration : 1 h 39 min
Overall bit rate : 7 800 kb/s
Encoded date : UTC 2018-03-23 14:53:33
Writing application : mkvmerge v9.8.0 ('Kuglblids') 64bit
Writing library : libebml v1.3.4 + libmatroska v1.4.5

Video
ID : 1
Format : AVC
Format/Info : Advanced Video Codec
Format profile : High@L4.1
Format settings : CABAC / 9 Ref Frames
Format settings, CABAC : Yes
Format settings, RefFrames : 9 frames
Codec ID : V_MPEG4/ISO/AVC
Duration : 1 h 39 min
Bit rate : 6 249 kb/s
Width : 1 280 pixels
Height : 690 pixels
Display aspect ratio : 1.85:1
Frame rate mode : Constant
Frame rate : 23.976 (24000/1001) FPS
Color space : YUV
Chroma subsampling : 4:2:0
Bit depth : 8 bits
Scan type : Progressive
Bits/(Pixel*Frame) : 0.295
Stream size : 4.34 GiB (80%)
Title : FFlipped @ HDChina
Writing library : x264 core 142 r2431+42 c69a006 tMod [8-bit@all X86_64]
Encoding settings : cabac=1 / ref=9 / deblock=1:-3:-3 / analyse=0x3:0x133 / me=umh / subme=11 / psy=1 / fade_compensate=0.00 / psy_rd=1.05:0.00 / mixed_ref=1 / me_range=32 / chroma_me=1 / trellis=2 / 8x8dct=1 / cqm=0 / deadzone=21,11 / fast_pskip=0 / chroma_qp_offset=-2 / threads=48 / lookahead_threads=5 / sliced_threads=0 / nr=0 / decimate=0 / interlaced=0 / bluray_compat=0 / constrained_intra=0 / fgo=0 / bframes=8 / b_pyramid=2 / b_adapt=2 / b_bias=0 / direct=3 / weightb=1 / open_gop=0 / weightp=2 / keyint=240 / keyint_min=24 / scenecut=40 / intra_refresh=0 / rc_lookahead=40 / rc=crf / mbtree=0 / crf=17.0000 / qcomp=0.70 / qpmin=0:0:0 / qpmax=69:69:69 / qpstep=4 / vbv_maxrate=40000 / vbv_bufsize=30000 / crf_max=0.0 / nal_hrd=none / filler=0 / ip_ratio=1.10 / pb_ratio=1.15 / aq=3:1.10 / aq-sensitivity=10.00 / aq-factor=1.00:1.00:1.00 / aq2=0 / aq3=0
Default : Yes
Forced : No

Audio
ID : 2
Format : DTS
Format/Info : Digital Theater Systems
Mode : 16
Format settings, Endianness : Big
Codec ID : A_DTS
Duration : 1 h 39 min
Bit rate mode : Constant
Bit rate : 1 509 kb/s
Channel(s) : 6 channels
Channel positions : Front: L C R, Side: L R, LFE
Sampling rate : 48.0 kHz
Frame rate : 93.750 FPS (512 SPF)
Bit depth : 24 bits
Compression mode : Lossy
Stream size : 1.05 GiB (19%)
Language : Japanese
Default : Yes
Forced : No

Text #1
ID : 3
Format : PGS
Muxing mode : zlib
Codec ID : S_HDMV/PGS
Codec ID/Info : Picture based subtitle format used on BDs/HD-DVDs
Duration : 1 h 38 min
Bit rate : 20.1 kb/s
Count of elements : 2641
Stream size : 14.1 MiB (0%)
Title : CHS
Language : Chinese
Default : Yes
Forced : No

Text #2
ID : 4
Format : PGS
Muxing mode : zlib
Codec ID : S_HDMV/PGS
Codec ID/Info : Picture based subtitle format used on BDs/HD-DVDs
Duration : 1 h 38 min
Bit rate : 19.6 kb/s
Count of elements : 2641
Stream size : 13.7 MiB (0%)
Title : CHT
Language : Chinese
Default : No
Forced : No

Menu
00:00:00.000 : en:00:00:00.000
00:07:11.556 : en:00:07:11.556
00:18:07.545 : en:00:18:07.545
00:28:26.163 : en:00:28:26.163
00:40:15.246 : en:00:40:15.246
00:50:58.430 : en:00:50:58.430
00:58:20.080 : en:00:58:20.080
01:09:48.184 : en:01:09:48.184
01:15:13.092 : en:01:15:13.092
01:30:53.865 : en:01:30:53.865





Tornado Girl (2017) - 奥田民生になりたいボーイと出会う男すべて狂わせるガール


Tornado Girl (2017) - 奥田民生になりたいボーイと出会う男すべて狂わせるガール


Tornado Girl (2017) - 奥田民生になりたいボーイと出会う男すべて狂わせるガール


Tornado Girl (2017) - 奥田民生になりたいボーイと出会う男すべて狂わせるガール


Tornado Girl (2017) - 奥田民生になりたいボーイと出会う男すべて狂わせるガール