Tough Guys (2017)

Posted By: Without
1080p (FullHD) / WEB-DL IMDb
Tough Guys (2017)

Tough Guys (2017)
WEB-DL 1080p | MKV | 1920x872 | AVC@9841 kb/s | English AC3@640 kb/s
Subs: English | 6 channels | 1 h 17 min | 5.80 GB
Genre: Documentary, Action, Sport

Ten years before the debut of the Ultimate Fighting Championship, two karate promoters and their fighters, a rough group of barroom brawlers, bikers, teachers and steel workers, pioneered the first mixed-martial arts league in the nation.



General
Tough.Guys.2017.1080p.Amazon.WEB-DL.DD5.1.H.264-QOQ\Tough.Guys.2017.1080p.Amazon.WEB-DL.DD5.1.H.264-QOQ.mkv
Format : Matroska
Format version : Version 4 / Version 2
File size : 5.80 GiB
Duration : 1 h 17 min
Overall bit rate mode : Variable
Overall bit rate : 10.7 Mb/s
Encoded date : UTC 2017-11-28 06:24:41
Writing application : mkvmerge v13.0.0 ('The Juggler') 64bit
Writing library : libebml v1.3.4 + libmatroska v1.4.5

Video
ID : 1
Format : AVC
Format/Info : Advanced Video Codec
Format profile : High@L4
Format settings, CABAC : Yes
Format settings, ReFrames : 4 frames
Codec ID : V_MPEG4/ISO/AVC
Duration : 1 h 17 min
Bit rate mode : Variable
Bit rate : 9 841 kb/s
Maximum bit rate : 15.0 Mb/s
Width : 1 920 pixels
Height : 872 pixels
Display aspect ratio : 2.2:1
Original display aspect ratio : 2.2:1
Frame rate mode : Constant
Frame rate : 23.976 (24000/1001) FPS
Color space : YUV
Chroma subsampling : 4:2:0
Bit depth : 8 bits
Scan type : Progressive
Bits/(Pixel*Frame) : 0.245
Stream size : 5.33 GiB (92%)
Default : Yes
Forced : No
Color range : Limited
Color primaries : BT.709
Transfer characteristics : BT.709
Matrix coefficients : BT.709

Audio
ID : 2
Format : E-AC-3
Format/Info : Enhanced Audio Coding 3
Format settings, Endianness : Big
Codec ID : A_EAC3
Duration : 1 h 17 min
Bit rate mode : Constant
Bit rate : 640 kb/s
Channel(s) : 6 channels
Channel positions : Front: L C R, Side: L R, LFE
Sampling rate : 48.0 kHz
Frame rate : 187.500 FPS (256 spf)
Compression mode : Lossy
Stream size : 355 MiB (6%)
Language : English
Default : Yes
Forced : No

Text
ID : 3
Format : UTF-8
Codec ID : S_TEXT/UTF8
Codec ID/Info : UTF-8 Plain Text
Language : English
Default : No
Forced : No


WEB-DL 1080p Screenshots

Tough Guys (2017)

Tough Guys (2017)

Tough Guys (2017)

Tough Guys (2017)


Come Visit My Blog (•‿•)