All the World's Memory (1956)

Posted By: Tavaz
1080p (FullHD) / BDRip IMDb
All the World's Memory (1956)

All the World's Memory (1956)
BDRip | MKV | 1488x1080 | French | H264 @ 9240 kbps | FLAC @ 259 kbps | 21 min 54 s | 1.45 GiB
Subtitles: English
Genre: Documentary, Short

Toute la mémoire du monde is a documentary about the Bibliothèque Nationale in Paris. It presents the building, with its processes of cataloguing and preserving all sorts of printed material, as both a monument of cultural memory and as a monstrous, alien being.

6a05162b77b046b0961aab017f608196.mkv (1.5 GB)



General
Complete name : ./6a05162b77b046b0961aab017f608196.mkv
Format : Matroska
Format version : Version 4 / Version 2
File size : 1.45 GiB
Duration : 21 min 54 s
Overall bit rate mode : Variable
Overall bit rate : 9 503 kb/s
Encoded date : UTC 2018-01-18 16:03:48
Writing application : mkvmerge v8.3.0 ('Over the Horizon') 64bit
Writing library : libebml v1.3.1 + libmatroska v1.4.2

Video
ID : 1
Format : AVC
Format/Info : Advanced Video Codec
Format profile : High@L4.1
Format settings : CABAC / 4 Ref Frames
Format settings, CABAC : Yes
Format settings, RefFrames : 4 frames
Codec ID : V_MPEG4/ISO/AVC
Duration : 21 min 54 s
Bit rate : 9 240 kb/s
Width : 1 488 pixels
Height : 1 080 pixels
Display aspect ratio : 1.378
Frame rate mode : Constant
Frame rate : 24.000 FPS
Color space : YUV
Chroma subsampling : 4:2:0
Bit depth : 8 bits
Scan type : Progressive
Bits/(Pixel*Frame) : 0.240
Stream size : 1.41 GiB (97%)
Writing library : x264 core 155 r2893 b00bcaf
Encoding settings : cabac=1 / ref=4 / deblock=1:-3:-3 / analyse=0x3:0x133 / me=umh / subme=9 / psy=1 / psy_rd=1.00:0.00 / mixed_ref=1 / me_range=16 / chroma_me=1 / trellis=2 / 8x8dct=1 / cqm=0 / deadzone=21,11 / fast_pskip=0 / chroma_qp_offset=-2 / threads=12 / lookahead_threads=1 / sliced_threads=0 / nr=0 / decimate=1 / interlaced=0 / bluray_compat=0 / constrained_intra=0 / bframes=3 / b_pyramid=2 / b_adapt=1 / b_bias=0 / direct=3 / weightb=1 / open_gop=0 / weightp=2 / keyint=240 / keyint_min=24 / scenecut=40 / intra_refresh=0 / rc_lookahead=50 / rc=2pass / mbtree=1 / bitrate=9240 / ratetol=1.0 / qcomp=0.60 / qpmin=0 / qpmax=69 / qpstep=4 / cplxblur=20.0 / qblur=0.5 / ip_ratio=1.40 / aq=1:1.00
Language : English
Default : Yes
Forced : No

Audio
ID : 2
Format : FLAC
Format/Info : Free Lossless Audio Codec
Codec ID : A_FLAC
Duration : 21 min 54 s
Bit rate mode : Variable
Bit rate : 259 kb/s
Channel(s) : 2 channels
Channel positions : Front: L R
Sampling rate : 48.0 kHz
Frame rate : 11.719 FPS (4096 SPF)
Bit depth : 16 bits
Stream size : 40.6 MiB (3%)
Writing library : libFLAC 1.2.1 (UTC 2007-09-17)
Language : French
Default : Yes
Forced : No

Text
ID : 3
Format : UTF-8
Codec ID : S_TEXT/UTF8
Codec ID/Info : UTF-8 Plain Text
Duration : 21 min 33 s
Bit rate : 51 b/s
Count of elements : 142
Stream size : 8.11 KiB (0%)
Title : English
Language : English
Default : Yes
Forced : Yes

Menu
00:00:00.000 : en:00:00:00.000
00:10:09.125 : en:00:10:09.125





All the World's Memory (1956)


All the World's Memory (1956)


All the World's Memory (1956)


All the World's Memory (1956)


All the World's Memory (1956)