Transformers: L'ultimo cavaliere (2017)

Posted By: JohnSmith
Transformers: L'ultimo cavaliere (2017)

Transformers: L'ultimo cavaliere / Transformers: The Last Knight (2017)
BDRip LD | AVI / XviD@1720 kb/s | 720x368 | 2h 34mn | 2.01 GB | Italian (dubbed): MP3, 128 kb/s (2 ch)
Genre: Action | Adventure | Sci-Fi | Thriller

Umani e Transformers sono in guerra. Optimus Prime non c'è e la chiave per salvaguardare il futuro è sepolta nei segreti del passato, nella storia nascosta dei Transformers sulla Terra. La salvezza del mondo ricade sulle spalle di un'improbabile allenza tra Cade Yeager, Bumblebee, un lord inglese e una professoressa di Oxford.




General
Complete name : A:\Transformers.L.Ultimo.Cavaliere.2017.iTALiAN.LD.BDRip.XviD-CriMiNaL.avi
Format : AVI
Format/Info : Audio Video Interleave
Format profile : OpenDML
File size : 2.01 GiB
Duration : 2 h 34 min
Overall bit rate : 1 860 kb/s
Writing library : VirtualDub build 35491/release

Video
ID : 0
Format : MPEG-4 Visual
Format profile : Advanced Simple@L5
Format settings, BVOP : 2
Format settings, QPel : No
Format settings, GMC : No warppoints
Format settings, Matrix : Default (MPEG)
Muxing mode : Packed bitstream
Codec ID : XVID
Codec ID/Hint : XviD
Duration : 2 h 34 min
Bit rate : 1 719 kb/s
Width : 720 pixels
Height : 368 pixels
Display aspect ratio : 1.957
Frame rate : 23.976 (24000/1001) FPS
Color space : YUV
Chroma subsampling : 4:2:0
Bit depth : 8 bits
Scan type : Progressive
Compression mode : Lossy
Bits/(Pixel*Frame) : 0.271
Stream size : 1.86 GiB (92%)
Writing library : XviD 67

Audio
ID : 1
Format : MPEG Audio
Format version : Version 1
Format profile : Layer 3
Mode : Joint stereo
Mode extension : MS Stereo
Codec ID : 55
Codec ID/Hint : MP3
Duration : 2 h 34 min
Bit rate mode : Constant
Bit rate : 128 kb/s
Channel(s) : 2 channels
Sampling rate : 48.0 kHz
Compression mode : Lossy
Stream size : 142 MiB (7%)
Alignment : Split accross interleaves
Interleave, duration : 42 ms (1.00 video frame)
Interleave, preload duratio : 500 ms
Writing library : LAME3.99r
Encoding settings : -m j -V 4 -q 3 -lowpass 17 -b 128




Screenshots

Transformers: L'ultimo cavaliere (2017)

Transformers: L'ultimo cavaliere (2017)

Transformers: L'ultimo cavaliere (2017)