Subcategories

Transformers: The Last Knight (2017) [3D]

Posted By: JohnSmith
Transformers: The Last Knight (2017) [3D]

Transformers: The Last Knight (2017)
3D HSBS | BDRip 1080p | MKV / AVC@16.4 Mb/s | 1920x1080 | 2h 34mn | 18.6 GB
English: AC3, 640 kb/s (6 ch) | Subtitles: English, French, Spanish, Portuguese
Genre: Action | Adventure | Sci-Fi | Thriller

Optimus Prime finds his dead home planet, Cybertron, in which he comes to find he was responsible for its destruction. He finds a way to bring Cybertron back to life, but in order to do so, Optimus needs to find an artifact that is on Earth.




General
Unique ID : 215010450138583017310331008675366349167 (0xA1C181A540B7507B850DEEEAA380A96F)
Complete name : A:\Transformers.The.Last.Knight.2017.BluRay.3D.HSBS.DD5.1.x264-SadeceBluRay.mkv
Format : Matroska
Format version : Version 4 / Version 2
File size : 18.6 GiB
Duration : 2 h 34 min
Overall bit rate : 17.3 Mb/s
Movie name : TRANSFORMERS_THE_LAST_KNIGHT_3D.Title800
Encoded date : UTC 2017-09-22 01:28:23
Writing application : DVDFab 10.0.3.9
Writing library : libebml v1.3.4 + libmatroska v1.4.5

Video
ID : 1
Format : AVC
Format/Info : Advanced Video Codec
Format profile : High@L4.1
Format settings, CABAC : Yes
Format settings, ReFrames : 2 frames
Codec ID : V_MPEG4/ISO/AVC
Duration : 2 h 34 min
Bit rate : 16.4 Mb/s
Width : 1 920 pixels
Height : 1 080 pixels
Display aspect ratio : 16:9
Frame rate mode : Constant
Frame rate : 23.976 (24000/1001) FPS
Color space : YUV
Chroma subsampling : 4:2:0
Bit depth : 8 bits
Scan type : Progressive
Bits/(Pixel*Frame) : 0.329
Stream size : 17.7 GiB (95%)
Writing library : x264 core 142
Encoding settings : cabac=1 / ref=1 / deblock=1:-1:-1 / analyse=0x3:0 / me=hex / subme=5 / psy=0 / mixed_ref=0 / me_range=16 / chroma_me=1 / trellis=0 / 8x8dct=1 / cqm=0 / deadzone=21,11 / fast_pskip=0 / chroma_qp_offset=0 / threads=4 / lookahead_threads=1 / sliced_threads=0 / nr=0 / decimate=1 / interlaced=0 / bluray_compat=0 / constrained_intra=0 / bframes=2 / b_pyramid=0 / b_adapt=1 / b_bias=0 / direct=1 / weightb=0 / open_gop=0 / weightp=0 / keyint=24 / keyint_min=13 / scenecut=40 / intra_refresh=0 / rc=2pass / mbtree=0 / bitrate=16357 / ratetol=1.0 / qcomp=0.60 / qpmin=0 / qpmax=69 / qpstep=4 / cplxblur=20.0 / qblur=0.5 / ip_ratio=1.40 / pb_ratio=1.30 / aq=1:1.00
Default : Yes
Forced : No
Color range : Limited
Color primaries : BT.709
Transfer characteristics : BT.709
Matrix coefficients : BT.709

Audio
ID : 2
Format : AC-3
Format/Info : Audio Coding 3
Format settings, Endianness : Big
Codec ID : A_AC3
Duration : 2 h 34 min
Bit rate mode : Constant
Bit rate : 640 kb/s
Channel(s) : 6 channels
Channel positions : Front: L C R, Side: L R, LFE
Sampling rate : 48.0 kHz
Frame rate : 31.250 FPS (1536 spf)
Bit depth : 16 bits
Compression mode : Lossy
Stream size : 708 MiB (4%)
Language : English
Service kind : Complete Main
Default : Yes
Forced : No

Text #1
ID : 3
Format : PGS
Codec ID : S_HDMV/PGS
Codec ID/Info : Picture based subtitle format used on BDs/HD-DVDs
Duration : 2 h 24 min
Bit rate : 55.3 kb/s
Count of elements : 4552
Stream size : 57.3 MiB (0%)
Language : English
Default : No
Forced : No

Text #2
ID : 4
Format : PGS
Codec ID : S_HDMV/PGS
Codec ID/Info : Picture based subtitle format used on BDs/HD-DVDs
Duration : 2 h 25 min
Bit rate : 65.2 kb/s
Count of elements : 5240
Stream size : 68.1 MiB (0%)
Language : English
Default : No
Forced : No

Text #3
ID : 5
Format : PGS
Codec ID : S_HDMV/PGS
Codec ID/Info : Picture based subtitle format used on BDs/HD-DVDs
Duration : 2 h 25 min
Bit rate : 53.9 kb/s
Count of elements : 4614
Stream size : 56.1 MiB (0%)
Language : French
Default : No
Forced : No

Text #4
ID : 6
Format : PGS
Codec ID : S_HDMV/PGS
Codec ID/Info : Picture based subtitle format used on BDs/HD-DVDs
Duration : 2 h 25 min
Bit rate : 51.7 kb/s
Count of elements : 4576
Stream size : 53.9 MiB (0%)
Language : Spanish
Default : No
Forced : No

Text #5
ID : 7
Format : PGS
Codec ID : S_HDMV/PGS
Codec ID/Info : Picture based subtitle format used on BDs/HD-DVDs
Duration : 2 h 25 min
Bit rate : 47.8 kb/s
Count of elements : 4614
Stream size : 49.8 MiB (0%)
Language : Portuguese
Default : No
Forced : No

Menu
00:00:00.000 : en:(01)00:00:00:000
00:06:35.269 : en:(02)00:06:35:269
00:14:02.633 : en:(03)00:14:02:633
00:21:44.928 : en:(04)00:21:44:928
00:27:52.420 : en:(05)00:27:52:420
00:33:53.072 : en:(06)00:33:53:072
00:40:08.072 : en:(07)00:40:08:072
00:46:58.106 : en:(08)00:46:58:106
00:53:24.951 : en:(09)00:53:24:951
01:02:02.093 : en:(10)01:02:02:093
01:08:46.247 : en:(11)01:08:46:247
01:14:36.388 : en:(12)01:14:36:388
01:20:09.346 : en:(13)01:20:09:346
01:29:12.555 : en:(14)01:29:12:555
01:37:58.664 : en:(15)01:37:58:664
01:44:56.748 : en:(16)01:44:56:748
01:51:14.668 : en:(17)01:51:14:668
01:57:58.613 : en:(18)01:57:58:613
02:06:08.894 : en:(19)02:06:08:894
02:10:53.262 : en:(20)02:10:53:262
02:16:00.318 : en:(21)02:16:00:318
02:21:41.784 : en:(22)02:21:41:784
02:25:16.457 : en:(23)02:25:16:457
02:34:37.685 : en:(24)02:34:37:685




Screenshots

Transformers: The Last Knight (2017) [3D]

Transformers: The Last Knight (2017) [3D]

Transformers: The Last Knight (2017) [3D]