Tags
Language
Tags

Arte - Tsunamis: Facing a Global Threat (2020)

Posted By: notbanned
1080p (FullHD) / HDTV
Arte - Tsunamis: Facing a Global Threat (2020)

Arte - Tsunamis: Facing a Global Threat (2020)
HDTV | 1920x1080 | .MP4/AVC @ 4568 Kbps | 52 min 57 s | 1.75 GiB
Audio: English AAC 159 kbps, 2 channels | Subs: English
Genre: Documentary

A worldwide scientific investigation on tsunamis. Thanks to exclusive access in Palu, Indonesia, follow the UN’s hand-picked scientific team of "tsunamis hunters". Where do they strike? How do they submerge us? What can we do to survive them?

General
Complete name : Tsunamis.Facing.a.Global.Threat.1080p.mp4
Format : MPEG-4
Format profile : Base Media
Codec ID : isom (isom)
File size : 1.75 GiB
Duration : 52 min 57 s
Overall bit rate mode : Variable
Overall bit rate : 4 730 kb/s

Video
ID : 1
Format : AVC
Format/Info : Advanced Video Codec
Format profile : High@L4.1
Format settings, CABAC : No
Format settings, ReFrames : 2 frames
Format settings, GOP : M=1, N=12
Codec ID : avc1
Codec ID/Info : Advanced Video Coding
Duration : 52 min 57 s
Bit rate : 4 568 kb/s
Maximum bit rate : 34.2 Mb/s
Width : 1 920 pixels
Height : 1 080 pixels
Display aspect ratio : 16:9
Frame rate mode : Constant
Frame rate : 25.000 FPS
Color space : YUV
Chroma subsampling : 4:2:0
Bit depth : 8 bits
Scan type : Progressive
Bits/(Pixel*Frame) : 0.088
Stream size : 1.69 GiB (97%)
Encoded date : UTC 2020-03-27 08:17:21
Tagged date : UTC 2020-03-27 10:29:01

Audio
ID : 2
Format : AAC
Format/Info : Advanced Audio Codec
Format profile : LC
Codec ID : 40
Duration : 52 min 57 s
Bit rate mode : Variable
Bit rate : 159 kb/s
Maximum bit rate : 225 kb/s
Channel(s) : 2 channels
Channel positions : Front: L R
Sampling rate : 48.0 kHz
Frame rate : 46.875 FPS (1024 spf)
Compression mode : Lossy
Stream size : 60.4 MiB (3%)
Encoded date : UTC 2020-03-27 10:28:53
Tagged date : UTC 2020-03-27 10:29:01

Text
ID : 3
Format : Timed Text
Codec ID : tx3g
Duration : 52 min 25 s
Bit rate mode : Variable
Bit rate : 95 b/s
Stream size : 36.6 KiB (0%)
Forced : No
Encoded date : UTC 2020-03-27 10:29:01
Tagged date : UTC 2020-03-27 10:29:01


Screenshots:

Arte - Tsunamis: Facing a Global Threat (2020)

Arte - Tsunamis: Facing a Global Threat (2020)

Arte - Tsunamis: Facing a Global Threat (2020)

Arte - Tsunamis: Facing a Global Threat (2020)