Tags
Language
Tags

Two Weeks in Another Town (1962)

Posted By: Tavaz
1080p (FullHD) / BDRip IMDb
Two Weeks in Another Town (1962)

Two Weeks in Another Town (1962)
BDRip | MKV | 1920x800 | English | H265 @ 1569 kbps | DTS @ 1509 kbps | 1 h 46 min | 2.35 GiB
Subtitles: English
Genre: Drama

After spending three years in an asylum, a washed-up actor views a minor assignment from his old director in Rome as a chance for personal and professional redemption.

0fe8f223f4f64c2ea6452099ffb856c1.mkv (2.3 GB)



General
Unique ID : 213317126668443157421956974672505390458 (0xA07B625A48F69B4B22554E51404EC57A)
Complete name : ./0fe8f223f4f64c2ea6452099ffb856c1.mkv
Format : Matroska
Format version : Version 4 / Version 2
File size : 2.35 GiB
Duration : 1 h 46 min
Overall bit rate : 3 141 kb/s
Encoded date : UTC 2019-09-22 04:44:44
Writing application : mkvmerge v37.0.0 ('Leave It') 64-bit
Writing library : libebml v1.3.9 + libmatroska v1.5.2

Video
ID : 1
Format : HEVC
Format/Info : High Efficiency Video Coding
Format profile : Main 10@L4@Main
Codec ID : V_MPEGH/ISO/HEVC
Duration : 1 h 46 min
Bit rate : 1 570 kb/s
Width : 1 920 pixels
Height : 800 pixels
Display aspect ratio : 2.40:1
Frame rate mode : Constant
Frame rate : 23.976 (24000/1001) FPS
Color space : YUV
Chroma subsampling : 4:2:0
Bit depth : 10 bits
Bits/(Pixel*Frame) : 0.043
Stream size : 1.17 GiB (50%)
Writing library : x265 2.9:[Windows][GCC 8.2.0][64 bit] 10bit
Encoding settings : cpuid=1111039 / frame-threads=4 / numa-pools=16 / wpp / no-pmode / no-pme / no-psnr / no-ssim / log-level=2 / input-csp=1 / input-res=1920x800 / interlace=0 / total-frames=0 / level-idc=0 / high-tier=1 / uhd-bd=0 / ref=3 / no-allow-non-conformance / no-repeat-headers / annexb / no-aud / no-hrd / info / hash=0 / no-temporal-layers / open-gop / min-keyint=24 / keyint=240 / gop-lookahead=0 / bframes=4 / b-adapt=2 / b-pyramid / bframe-bias=0 / rc-lookahead=20 / lookahead-slices=5 / scenecut=40 / radl=0 / no-intra-refresh / ctu=64 / min-cu-size=8 / no-rect / no-amp / max-tu-size=32 / tu-inter-depth=1 / tu-intra-depth=1 / limit-tu=0 / rdoq-level=0 / dynamic-rd=0.00 / no-ssim-rd / signhide / no-tskip / nr-intra=0 / nr-inter=0 / no-constrained-intra / strong-intra-smoothing / max-merge=2 / limit-refs=3 / no-limit-modes / me=1 / subme=2 / merange=57 / temporal-mvp / weightp / no-weightb / no-analyze-src-pics / deblock=0:0 / sao / no-sao-non-deblock / rd=3 / no-early-skip / rskip / no-fast-intra / no-tskip-fast / no-cu-lossless / no-b-intra / no-splitrd-skip / rdpenalty=0 / psy-rd=2.00 / psy-rdoq=0.00 / no-rd-refine / no-lossless / cbqpoffs=0 / crqpoffs=0 / rc=crf / crf=23.0 / qcomp=0.60 / qpstep=4 / stats-write=0 / stats-read=0 / ipratio=1.40 / pbratio=1.30 / aq-mode=1 / aq-strength=1.00 / cutree / zone-count=0 / no-strict-cbr / qg-size=32 / no-rc-grain / qpmax=69 / qpmin=0 / no-const-vbv / sar=1 / overscan=0 / videoformat=5 / range=0 / colorprim=1 / transfer=1 / colormatrix=1 / chromaloc=0 / display-window=0 / max-cll=0,0 / min-luma=0 / max-luma=1023 / log2-max-poc-lsb=8 / vui-timing-info / vui-hrd-info / slices=1 / no-opt-qp-pps / no-opt-ref-list-length-pps / no-multi-pass-opt-rps / scenecut-bias=0.05 / no-opt-cu-delta-qp / no-aq-motion / no-hdr / no-hdr-opt / no-dhdr10-opt / no-idr-recovery-sei / analysis-reuse-level=5 / scale-factor=0 / refine-intra=0 / refine-inter=0 / refine-mv=0 / no-limit-sao / ctu-info=0 / no-lowpass-dct / refine-mv-type=0 / copy-pic=1 / max-ausize-factor=1.0 / no-dynamic-refine / no-single-sei
Default : Yes
Forced : No
Color range : Limited
Color primaries : BT.709
Transfer characteristics : BT.709
Matrix coefficients : BT.709

Audio
ID : 2
Format : DTS
Format/Info : Digital Theater Systems
Mode : 16
Format settings, Endianness : Big
Codec ID : A_DTS
Duration : 1 h 46 min
Bit rate mode : Constant
Bit rate : 1 509 kb/s
Channel(s) : 2 channels
Channel positions : Front: L R
Sampling rate : 48.0 kHz
Frame rate : 93.750 FPS (512 SPF)
Bit depth : 24 bits
Compression mode : Lossy
Stream size : 1.13 GiB (48%)
Title : Stereo
Language : English
Default : Yes
Forced : No

Text
ID : 3
Format : PGS
Muxing mode : zlib
Codec ID : S_HDMV/PGS
Codec ID/Info : Picture based subtitle format used on BDs/HD-DVDs
Language : English
Default : No
Forced : No

Menu
00:00:00.000 : :Chapter 1
00:02:18.388 : :Chapter 2
00:07:30.742 : :Chapter 3
00:11:54.839 : :Chapter 4
00:16:20.521 : :Chapter 5
00:18:48.711 : :Chapter 6
00:23:55.726 : :Chapter 7
00:26:29.004 : :Chapter 8
00:31:48.907 : :Chapter 9
00:37:25.535 : :Chapter 10
00:39:37.750 : :Chapter 11
00:41:24.649 : :Chapter 12
00:47:29.263 : :Chapter 13
00:53:11.188 : :Chapter 14
00:57:41.583 : :Chapter 15
01:01:50.290 : :Chapter 16
01:03:54.080 : :Chapter 17
01:06:00.123 : :Chapter 18
01:09:03.181 : :Chapter 19
01:10:41.571 : :Chapter 20
01:14:14.325 : :Chapter 21
01:16:37.593 : :Chapter 22
01:20:58.937 : :Chapter 23
01:23:52.069 : :Chapter 24
01:26:35.232 : :Chapter 25
01:31:06.544 : :Chapter 26
01:34:31.749 : :Chapter 27
01:37:35.266 : :Chapter 28
01:39:12.822 : :Chapter 29
01:42:06.162 : :Chapter 30
01:44:25.009 : :Chapter 31
01:45:56.934 : :Chapter 32





Two Weeks in Another Town (1962)


Two Weeks in Another Town (1962)


Two Weeks in Another Town (1962)


Two Weeks in Another Town (1962)


Two Weeks in Another Town (1962)