Science Channel - Unearthed: Viking City Of The Dead (2018)

Posted By: notbanned
720p (HD) / HDTV
Science Channel - Unearthed: Viking City Of The Dead (2018)

Science Channel - Unearthed: Viking City Of The Dead (2018)
HDTV | 1280x720 | .MKV/AVC @ 3060 Kbps | 42 min 29 s | 963 MiB
Audio: English AAC 127 kbps, 2 channels | Subs: None
Genre: Documentary

When a mysterious Viking fortress lost underground for over a thousand years is discovered in Denmark, archaeologists investigate its buried treasures to reveal why it was built and what caused the end of this fearsome civilization.

General
Unique ID : 298179981200212777227308963410622542414 (0xE053601E36D24802D91F7F17B80BF24E)
Complete name : Unearthed.Viking.City.of.the.Dead.720p.mkv
Format : Matroska
Format version : Version 4 / Version 2
File size : 963 MiB
Duration : 42 min 29 s
Overall bit rate : 3 171 kb/s

Video
ID : 2
Format : AVC
Format/Info : Advanced Video Codec
Format profile : High@L3.1
Format settings, CABAC : Yes
Format settings, ReFrames : 2 frames
Codec ID : V_MPEG4/ISO/AVC
Duration : 42 min 29 s
Bit rate : 3 060 kb/s
Width : 1 280 pixels
Height : 720 pixels
Display aspect ratio : 16:9
Frame rate mode : Constant
Frame rate : 29.970 (30000/1001) FPS
Original frame rate : 30.000 FPS
Color space : YUV
Chroma subsampling : 4:2:0
Bit depth : 8 bits
Scan type : Progressive
Bits/(Pixel*Frame) : 0.111
Stream size : 924 MiB (96%)
Encoding settings : cabac=1 / ref=2 / deblock=1:0:0 / analyse=0x3:0x113 / me=hex / subme=2 / psy=1 / psy_rd=1.00:0.00 / mixed_ref=0 / me_range=16 / chroma_me=1 / trellis=0 / 8x8dct=1 / cqm=0 / deadzone=21,11 / fast_pskip=1 / chroma_qp_offset=0 / threads=4 / lookahead_threads=1 / sliced_threads=0 / nr=250 / decimate=1 / interlaced=0 / bluray_compat=0 / stitchable=1 / constrained_intra=0 / bframes=0 / weightp=1 / keyint=250 / keyint_min=25 / scenecut=40 / intra_refresh=0 / rc_lookahead=10 / rc=2pass / mbtree=1 / bitrate=3060 / ratetol=1.0 / qcomp=0.60 / qpmin=5 / qpmax=69 / qpstep=4 / cplxblur=20.0 / qblur=0.5 / ip_ratio=1.40 / aq=1:1.00
Language : English
Default : Yes
Forced : No

Audio
ID : 1
Format : AAC
Format/Info : Advanced Audio Codec
Format profile : HE-AAC / LC
Codec ID : A_AAC
Duration : 42 min 29 s
Bit rate : 127 kb/s
Channel(s) : 2 channels
Channel positions : Front: L R
Sampling rate : 48.0 kHz / 24.0 kHz
Frame rate : 23.438 FPS (1024 spf)
Compression mode : Lossy
Stream size : 38.5 MiB (4%)
Language : English
Default : Yes
Forced : No


Screenshots:

Science Channel - Unearthed: Viking City Of The Dead (2018)

Science Channel - Unearthed: Viking City Of The Dead (2018)

Science Channel - Unearthed: Viking City Of The Dead (2018)

Science Channel - Unearthed: Viking City Of The Dead (2018)