Vice: Voodoo Wrestling And Big Placebo (2018)

Posted By: notbanned
1080p (FullHD) / WEB-DL
Vice: Voodoo Wrestling And Big Placebo (2018)

Vice: Voodoo Wrestling And Big Placebo (2018)
WEB-DL | 1920x1080 | .MKV/AVC @ 6490 Kbps | 30 min 3 s | 1.44 GiB
Audio: English EAC3 224 kbps, 2 channels | Subs: English
Genre: Documentary

Dexter Thomas visits the Democratic Republic of the Congo to explore the sport of catch fétiche and the emergence of women as its new champions; Charlet Duboc reports on alternative medicine in the U.S. and the country's wellness obsession.

General
Unique ID : 5324938952430759155266338308941054089 (0x4018BC2989F2721660D379EFA6E8089)
Complete name : VICE.Voodoo.Wrestling.and.Big.Placebo.1080p.mkv
Format : Matroska
Format version : Version 4 / Version 2
File size : 1.44 GiB
Duration : 30 min 3 s
Overall bit rate : 6 851 kb/s

Video
ID : 1
Format : AVC
Format/Info : Advanced Video Codec
Format profile : High@L4
Format settings, CABAC : Yes
Format settings, ReFrames : 4 frames
Codec ID : V_MPEG4/ISO/AVC
Duration : 30 min 3 s
Bit rate : 6 490 kb/s
Width : 1 920 pixels
Height : 1 080 pixels
Display aspect ratio : 16:9
Frame rate mode : Constant
Frame rate : 23.976 (24000/1001) FPS
Color space : YUV
Chroma subsampling : 4:2:0
Bit depth : 8 bits
Scan type : Progressive
Bits/(Pixel*Frame) : 0.131
Stream size : 1.36 GiB (95%)
Default : Yes
Forced : No
Color range : Limited
Color primaries : BT.709
Transfer characteristics : BT.709
Matrix coefficients : BT.709
Statistics Tags Issue : mkvmerge v21.0.0 ('Tardigrades Will Inherit The Earth') 64-bit 2018-10-06 00:04:02 / mkvmerge v21.0.0 ('Tardigrades Will Inherit The Earth') 64-bit
FromStats_BitRate : 6624516
FromStats_Duration : 00:30:03.135000000
FromStats_FrameCount : 43232
FromStats_StreamSize : 1493112190

Audio
ID : 2
Format : E-AC-3
Format/Info : Enhanced Audio Coding 3
Format settings, Endianness : Big
Codec ID : A_EAC3
Duration : 30 min 3 s
Bit rate mode : Constant
Bit rate : 224 kb/s
Channel(s) : 2 channels
Channel positions : Front: L R
Sampling rate : 48.0 kHz
Frame rate : 187.500 FPS (256 spf)
Compression mode : Lossy
Delay relative to video : 19 ms
Stream size : 48.2 MiB (3%)
Language : English
Service kind : Complete Main
Default : Yes
Forced : No
Statistics Tags Issue : mkvmerge v21.0.0 ('Tardigrades Will Inherit The Earth') 64-bit 2018-10-06 00:04:02 / mkvmerge v21.0.0 ('Tardigrades Will Inherit The Earth') 64-bit
FromStats_BitRate : 224000
FromStats_Duration : 00:30:03.168000000
FromStats_FrameCount : 56349
FromStats_StreamSize : 50488704

Text #1
ID : 3
Format : UTF-8
Codec ID : S_TEXT/UTF8
Codec ID/Info : UTF-8 Plain Text
Language : English
Default : No
Forced : No
Statistics Tags Issue : mkvmerge v21.0.0 ('Tardigrades Will Inherit The Earth') 64-bit 2018-10-06 00:04:02 / mkvmerge v21.0.0 ('Tardigrades Will Inherit The Earth') 64-bit
FromStats_BitRate : 95
FromStats_Duration : 00:29:14.584000000
FromStats_FrameCount : 531
FromStats_StreamSize : 20923

Text #2
ID : 4
Format : UTF-8
Codec ID : S_TEXT/UTF8
Codec ID/Info : UTF-8 Plain Text
Title : SDH
Language : English
Default : No
Forced : No
Statistics Tags Issue : mkvmerge v21.0.0 ('Tardigrades Will Inherit The Earth') 64-bit 2018-10-06 00:04:02 / mkvmerge v21.0.0 ('Tardigrades Will Inherit The Earth') 64-bit
FromStats_BitRate : 101
FromStats_Duration : 00:29:14.584000000
FromStats_FrameCount : 593
FromStats_StreamSize : 22247


Screenshots:

Vice: Voodoo Wrestling And Big Placebo (2018)

Vice: Voodoo Wrestling And Big Placebo (2018)

Vice: Voodoo Wrestling And Big Placebo (2018)

Vice: Voodoo Wrestling And Big Placebo (2018)