What Will People Say (2017)

Posted By: Tavaz
720p (HD) / BDRip IMDb
What Will People Say (2017)

What Will People Say (2017)
BDRip | MKV | 1280x536 | Norwegian | H264 @ 5806 kbps | DTS @ 1509 kbps | 1 h 46 min | 5.46 GiB
Subtitles: Norwegian, English
Genre: Drama

Sixteen year-old Nisha lives a double life. At home with her family she is the perfect Pakistani daughter, but when out with her friends, she is a normal Norwegian teenager. When her father catches her in bed with her boyfriend, Nisha's two worlds brutally collide. To set an example, Nisha's parents decide to kidnap her and place her with relatives in Pakistan. Here, in a country she has never been to before, Nisha is forced to adapt to her parents' culture.

e721cdb47f914c6f98dd7a8503ba8a7d.mkv (5.5 GB)



General
Unique ID : 105198608488921908974587194352308688551 (0x4F2483D854388FCE122B0625F67196A7)
Complete name : ./e721cdb47f914c6f98dd7a8503ba8a7d.mkv
Format : Matroska
Format version : Version 4 / Version 2
File size : 5.46 GiB
Duration : 1 h 46 min
Overall bit rate : 7 313 kb/s
Encoded date : UTC 2019-02-06 15:05:32
Writing application : mkvmerge v30.0.0 ('Interstellar') 64-bit
Writing library : libebml v1.3.6 + libmatroska v1.4.9

Video
ID : 1
Format : AVC
Format/Info : Advanced Video Codec
Format profile : High@L4.1
Format settings : CABAC / 5 Ref Frames
Format settings, CABAC : Yes
Format settings, RefFrames : 5 frames
Codec ID : V_MPEG4/ISO/AVC
Duration : 1 h 46 min
Bit rate : 5 806 kb/s
Width : 1 280 pixels
Height : 536 pixels
Display aspect ratio : 2.40:1
Frame rate mode : Constant
Frame rate : 24.000 FPS
Color space : YUV
Chroma subsampling : 4:2:0
Bit depth : 8 bits
Scan type : Progressive
Bits/(Pixel*Frame) : 0.353
Stream size : 4.33 GiB (79%)
Writing library : x264 core 157 r2935 545de2f
Encoding settings : cabac=1 / ref=5 / deblock=1:0:0 / analyse=0x3:0x113 / me=umh / subme=9 / psy=1 / psy_rd=1.00:0.00 / mixed_ref=1 / me_range=16 / chroma_me=1 / trellis=1 / 8x8dct=1 / cqm=0 / deadzone=21,11 / fast_pskip=1 / chroma_qp_offset=-2 / threads=17 / lookahead_threads=1 / sliced_threads=0 / nr=0 / decimate=1 / interlaced=0 / bluray_compat=0 / constrained_intra=0 / bframes=3 / b_pyramid=2 / b_adapt=1 / b_bias=0 / direct=3 / weightb=1 / open_gop=0 / weightp=2 / keyint=240 / keyint_min=24 / scenecut=40 / intra_refresh=0 / rc_lookahead=50 / rc=2pass / mbtree=1 / bitrate=5806 / ratetol=1.0 / qcomp=0.60 / qpmin=0 / qpmax=69 / qpstep=4 / cplxblur=20.0 / qblur=0.5 / ip_ratio=1.40 / aq=1:1.00
Language : Norwegian
Default : Yes
Forced : No

Audio
ID : 2
Format : DTS
Format/Info : Digital Theater Systems
Mode : 16
Format settings, Endianness : Big
Codec ID : A_DTS
Duration : 1 h 46 min
Bit rate mode : Constant
Bit rate : 1 509 kb/s
Channel(s) : 6 channels
Channel positions : Front: L C R, Side: L R, LFE
Sampling rate : 48.0 kHz
Frame rate : 93.750 FPS (512 SPF)
Bit depth : 24 bits
Compression mode : Lossy
Delay relative to video : 7 ms
Stream size : 1.13 GiB (21%)
Language : Norwegian
Default : Yes
Forced : No

Text #1
ID : 3
Format : UTF-8
Codec ID : S_TEXT/UTF8
Codec ID/Info : UTF-8 Plain Text
Duration : 1 h 43 min
Bit rate : 29 b/s
Count of elements : 790
Stream size : 22.7 KiB (0%)
Language : English
Default : Yes
Forced : No

Text #2
ID : 4
Format : UTF-8
Codec ID : S_TEXT/UTF8
Codec ID/Info : UTF-8 Plain Text
Duration : 1 h 43 min
Bit rate : 30 b/s
Count of elements : 806
Stream size : 23.3 KiB (0%)
Language : Norwegian
Default : No
Forced : No

Menu
00:00:00.000 : en:00:00:00.000
00:11:21.875 : en:00:11:21.875
00:26:10.916 : en:00:26:10.916
00:41:09.041 : en:00:41:09.041
00:54:43.458 : en:00:54:43.458
01:04:13.666 : en:01:04:13.666
01:18:34.708 : en:01:18:34.708
01:35:34.333 : en:01:35:34.333
01:46:48.250 : en:01:46:48.250





What Will People Say (2017)


What Will People Say (2017)


What Will People Say (2017)


What Will People Say (2017)


What Will People Say (2017)