Subcategories

While We're Young (2014)

Posted By: Without
While We're Young (2014)

While We're Young (2014)
WEB-DL 720p | MKV | 1280×688 | AVC@3958 Kbps | English AC-3@384 Kbps | Subs: English | 6 channels | 01:37:01 | 3.00 GB
Genre: Comedy | Drama

A middle-aged couple's career and marriage are overturned when a disarming young couple enters their lives.



General
Unique ID : 196861562368020276885693420371013889744 (0x941A2864AF8D12EFBDAE19CD93816ED0)
Complete name : While.Were.Young.2014.720p.WEB-DL.DD5.1.H.264-PLAYNOW.mkv
Format : Matroska
Format version : Version 4 / Version 2
File size : 3.00 GiB
Duration : 1h 37mn
Overall bit rate : 4 431 Kbps
Encoded date : UTC 2015-06-09 04:44:08
Writing application : mkvmerge v7.0.0 ('Where We Going') 64bit built on Jun 9 2014 15:16:27
Writing library : libebml v1.3.0 + libmatroska v1.4.1
DURATION : 01:28:38.512000000
NUMBER_OF_FRAMES : 1654
NUMBER_OF_BYTES : 78568
_STATISTICS_WRITING_APP : mkvmerge v7.0.0 ('Where We Going') 64bit built on Jun 9 2014 15:16:27
_STATISTICS_WRITING_DATE_UTC : 2015-06-09 04:44:08
_STATISTICS_TAGS : BPS DURATION NUMBER_OF_FRAMES NUMBER_OF_BYTES

Video
ID : 1
Format : AVC
Format/Info : Advanced Video Codec
Format profile : High@L3.1
Format settings, CABAC : No
Format settings, ReFrames : 2 frames
Codec ID : V_MPEG4/ISO/AVC
Duration : 1h 37mn
Bit rate : 3 958 Kbps
Width : 1 280 pixels
Height : 688 pixels
Display aspect ratio : 1.85:1
Frame rate mode : Constant
Frame rate : 23.976 fps
Color space : YUV
Chroma subsampling : 4:2:0
Bit depth : 8 bits
Scan type : Progressive
Bits/(Pixel*Frame) : 0.187
Stream size : 2.68 GiB (89%)
Language : English
Default : Yes
Forced : No
Color primaries : BT.709
Transfer characteristics : BT.709
Matrix coefficients : BT.709

Audio
ID : 2
Format : AC-3
Format/Info : Audio Coding 3
Mode extension : CM (complete main)
Format settings, Endianness : Big
Codec ID : A_AC3
Duration : 1h 37mn
Bit rate mode : Constant
Bit rate : 384 Kbps
Channel(s) : 6 channels
Channel positions : Front: L C R, Side: L R, LFE
Sampling rate : 48.0 KHz
Bit depth : 16 bits
Compression mode : Lossy
Stream size : 266 MiB (9%)
Language : English
Default : Yes
Forced : No

Text
ID : 3
Format : UTF-8
Codec ID : S_TEXT/UTF8
Codec ID/Info : UTF-8 Plain Text
Language : English
Default : No
Forced : No

Menu
00:00:00.000 : en:1
00:09:02.000 : en:2
00:18:55.000 : en:3
00:29:38.000 : en:4
00:39:34.000 : en:5
00:48:41.000 : en:6
00:57:29.000 : en:7
01:07:37.000 : en:8
01:15:03.000 : en:9
01:26:14.000 : en:10
01:30:47.000 : en:11



Screenshots

While We're Young (2014)

While We're Young (2014)

While We're Young (2014)


Come Visit My Blog (•‿•)