Wolf Warrior 2 (2017)

Posted By: Tavaz
Wolf Warrior 2 (2017)

Wolf Warrior 2 (2017)
AVI | 720x306 | MP4V-ES @ 1848 kbps | AC-3 @ 448 kbps | 2 h 3 min | 1.98 GiB
Genre: Action, Drama, Thriller

Sequel to the Action-hit Movie "Wolf Warrior" (2015) China's deadliest special forces operative settles into a quiet life on the sea. When sadistic mercenaries begin targeting nearby civilians, he must leave his newfound peace behind and return to his duties as a soldier and protector.

Wolf.Warrior.2.2017.LIMITED.BRRip.HebSubs.XviD.AC3-Uploadil.avi (2.0 GB)



General
Complete name : ./Wolf.Warrior.2.2017.LIMITED.BRRip.HebSubs.XviD.AC3-Uploadil.avi
Format : AVI
Format/Info : Audio Video Interleave
File size : 1.98 GiB
Duration : 2 h 3 min
Overall bit rate : 2 306 kb/s
Writing library : VirtualDub build 35491/release

Video
ID : 0
Format : MPEG-4 Visual
Format profile : Advanced Simple@L5
Format settings, BVOP : No
Format settings, QPel : No
Format settings, GMC : No warppoints
Format settings, Matrix : Default (H.263)
Codec ID : XVID
Codec ID/Hint : XviD
Duration : 2 h 3 min
Bit rate : 1 849 kb/s
Width : 720 pixels
Height : 306 pixels
Display aspect ratio : 2.35:1
Frame rate : 24.000 FPS
Color space : YUV
Chroma subsampling : 4:2:0
Bit depth : 8 bits
Scan type : Progressive
Compression mode : Lossy
Bits/(Pixel*Frame) : 0.350
Stream size : 1.59 GiB (80%)
Writing library : XviD 64

Audio
ID : 1
Format : AC-3
Format/Info : Audio Coding 3
Format settings, Endianness : Big
Codec ID : 2000
Duration : 2 h 3 min
Bit rate mode : Constant
Bit rate : 448 kb/s
Channel(s) : 6 channels
Channel positions : Front: L C R, Side: L R, LFE
Sampling rate : 48.0 kHz
Frame rate : 31.250 FPS (1536 SPF)
Bit depth : 16 bits
Compression mode : Lossy
Stream size : 395 MiB (19%)
Alignment : Aligned on interleaves
Interleave, duration : 42 ms (1.00 video frame)
Interleave, preload duration : 512 ms
Service kind : Complete Main





Wolf Warrior 2 (2017)


Wolf Warrior 2 (2017)


Wolf Warrior 2 (2017)


Wolf Warrior 2 (2017)


Wolf Warrior 2 (2017)