Yellow Submarine (1968)

Posted By: Without
1080p (FullHD) / BDRip IMDb
Yellow Submarine (1968)

Yellow Submarine (1968)
BDRip 1080p | MKV | 1808x1080 | AVC@5466 kb/s | English DTS@1509 kb/s
Subs: English | 6 channels | 1 h 29 min | 4.37 GB
Genre: Animation, Adventure, Comedy

The Beatles agree to accompany Captain Fred in his Yellow Submarine and go to Pepperland to free it from the music hating Blue Meanies.

IMDB - 2 wins & 2 nominations.


General
Yellow.Submarine.1968.1080p.BluRay.X264-AMIABLE\Yellow.Submarine.1968.1080p.BluRay.X264-AMIABLE.mkv
Format : Matroska
Format version : Version 2
File size : 4.37 GiB
Duration : 1 h 29 min
Overall bit rate : 6 974 kb/s
Writing application : x264.exe
Writing library : mkv2rls v1.4 (date: 2011 mar 29)

Video
ID : 1
Format : AVC
Format/Info : Advanced Video Codec
Format profile : High@L4.1
Format settings, CABAC : Yes
Format settings, ReFrames : 4 frames
Codec ID : V_MPEG4/ISO/AVC
Duration : 1 h 29 min
Bit rate : 5 466 kb/s
Width : 1 808 pixels
Height : 1 080 pixels
Display aspect ratio : 5:3
Frame rate mode : Constant
Frame rate : 23.976 (24000/1001) FPS
Color space : YUV
Chroma subsampling : 4:2:0
Bit depth : 8 bits
Scan type : Progressive
Bits/(Pixel*Frame) : 0.117
Stream size : 3.34 GiB (76%)
Writing library : x264 core 124 r2197 69a0443
Encoding settings : cabac=1 / ref=4 / deblock=1:0:0 / analyse=0x3:0x113 / me=umh / subme=8 / psy=1 / psy_rd=1.00:0.00 / mixed_ref=1 / me_range=16 / chroma_me=1 / trellis=1 / 8x8dct=1 / cqm=0 / deadzone=21,11 / fast_pskip=1 / chroma_qp_offset=-2 / threads=12 / sliced_threads=0 / nr=0 / decimate=1 / interlaced=0 / bluray_compat=0 / constrained_intra=0 / bframes=3 / b_pyramid=2 / b_adapt=2 / b_bias=0 / direct=3 / weightb=1 / open_gop=0 / weightp=2 / keyint=240 / keyint_min=24 / scenecut=40 / intra_refresh=0 / rc_lookahead=50 / rc=2pass / mbtree=1 / bitrate=5466 / ratetol=1.0 / qcomp=0.60 / qpmin=0 / qpmax=69 / qpstep=4 / cplxblur=20.0 / qblur=0.5 / ip_ratio=1.40 / aq=1:1.00
Language : English
Default : Yes
Forced : No

Audio
ID : 2
Format : DTS
Format/Info : Digital Theater Systems
Mode : 16
Format settings, Endianness : Big
Codec ID : A_DTS
Duration : 1 h 29 min
Bit rate mode : Constant
Bit rate : 1 509 kb/s
Channel(s) : 6 channels
Channel positions : Front: L C R, Side: L R, LFE
Sampling rate : 48.0 kHz
Frame rate : 93.750 FPS (512 spf)
Bit depth : 24 bits
Compression mode : Lossy
Stream size : 968 MiB (22%)
Language : English
Default : Yes
Forced : No

Text
ID : 3
Format : UTF-8
Codec ID : S_TEXT/UTF8
Codec ID/Info : UTF-8 Plain Text
Language : English
Default : No
Forced : No

Menu
00:00:00.000 : en:00:00:00.000
00:01:40.648 : en:00:01:40.648
00:05:32.880 : en:00:05:32.880
00:07:33.000 : en:00:07:33.000
00:10:16.080 : en:00:10:16.080
00:13:13.298 : en:00:13:13.298
00:16:03.719 : en:00:16:03.719
00:18:41.376 : en:00:18:41.376
00:20:54.968 : en:00:20:54.968
00:22:02.661 : en:00:22:02.661
00:22:46.746 : en:00:22:46.746
00:25:32.078 : en:00:25:32.078
00:28:06.399 : en:00:28:06.399
00:31:00.865 : en:00:31:00.865
00:33:52.328 : en:00:33:52.328
00:40:18.005 : en:00:40:18.005
00:42:55.579 : en:00:42:55.579
00:46:23.870 : en:00:46:23.870
00:47:42.365 : en:00:47:42.365
00:51:11.700 : en:00:51:11.700
00:54:43.411 : en:00:54:43.411
00:56:48.411 : en:00:56:48.411
01:01:48.586 : en:01:01:48.586
01:03:14.422 : en:01:03:14.422
01:04:46.680 : en:01:04:46.680
01:06:08.929 : en:01:06:08.929
01:08:20.978 : en:01:08:20.978
01:08:47.254 : en:01:08:47.254
01:11:24.411 : en:01:11:24.411
01:14:41.066 : en:01:14:41.066
01:16:57.577 : en:01:16:57.577
01:20:29.706 : en:01:20:29.706
01:21:21.966 : en:01:21:21.966
01:24:18.017 : en:01:24:18.017
01:26:52.130 : en:01:26:52.130
01:28:40.238 : en:01:28:40.238


BDRip 1080p Screenshots

Yellow Submarine (1968)

Yellow Submarine (1968)

Yellow Submarine (1968)

Yellow Submarine (1968)

Yellow Submarine (1968)

Yellow Submarine (1968)


Come Visit My Blog (•‿•)