Zona d'ombra - Una scomoda verità (2015)

Posted By: JohnSmith
Zona d'ombra - Una scomoda verità (2015)

Zona d'ombra / Concussion (2015)
BDRip | MKV / AVC@1482 kb/s | 848x352 | 2h 2mn | 1.86 GB
Italian: AC3, 640 kb/s (6 ch) | Subtitles: Italian (forced, full)
Genre: Biography | Drama | Sport

Il racconto di come il dottor Bennet Omalu, immigrato e brillante neuropatologo forense, ha scoperto l'encefalopatia traumatica cronica, un trauma celebrare che colpisce soprattutto i giocatori professionisti di football. La sua scoperta ha dato inizio una battaglia contro i giganti della NFL, una delle istituzioni sportive più potenti al mondo.

IMDB - Nominated for 1 Golden Globe. Another 4 wins & 14 nominations.



General
Unique ID : 188968131717485982859756291972399072616 (0x8E29F0371CFF45DD8D64BA97EC9F8568)
Complete name : C:\Zona.D.Ombra.Una.Scomoda.Verita.2015.iTA.BDRip.480p-CTRL.mkv
Format : Matroska
Format version : Version 4 / Version 2
File size : 1.86 GiB
Duration : 2h 2mn
Overall bit rate : 2 166 Kbps
Encoded date : UTC 2016-06-09 03:14:37
Writing application : mkvmerge v8.3.0 ('Over the Horizon') 64bit
Writing library : libebml v1.3.1 + libmatroska v1.4.2
Attachements : Concussion.2015.REMUX-FraMeSToR.rar
DURATION : 02:02:50.368000000
NUMBER_OF_FRAMES : 230324
NUMBER_OF_BYTES : 589629440
_STATISTICS_WRITING_APP : mkvmerge v8.3.0 ('Over the Horizon') 64bit
_STATISTICS_WRITING_DATE_UT : 2016-06-09 03:14:37
_STATISTICS_TAGS : BPS DURATION NUMBER_OF_FRAMES NUMBER_OF_BYTES

Video
ID : 1
Format : AVC
Format/Info : Advanced Video Codec
Format profile : High@L4.1
Format settings, CABAC : Yes
Format settings, ReFrames : 5 frames
Codec ID : V_MPEG4/ISO/AVC
Duration : 2h 2mn
Bit rate : 1 482 Kbps
Width : 848 pixels
Height : 352 pixels
Display aspect ratio : 2.40:1
Original display aspect rat : 2.40:1
Frame rate mode : Constant
Frame rate : 23.976 fps
Color space : YUV
Chroma subsampling : 4:2:0
Bit depth : 8 bits
Scan type : Progressive
Bits/(Pixel*Frame) : 0.207
Stream size : 1.27 GiB (68%)
Writing library : x264 core 148 r2692 64f4e24
Language : English
Default : Yes
Forced : No
DURATION : 02:02:49.321000000
NUMBER_OF_FRAMES : 176687
NUMBER_OF_BYTES : 1403672934
_STATISTICS_WRITING_APP : mkvmerge v8.3.0 ('Over the Horizon') 64bit
_STATISTICS_WRITING_DATE_UT : 2016-06-09 03:14:37
_STATISTICS_TAGS : BPS DURATION NUMBER_OF_FRAMES NUMBER_OF_BYTES

Audio
ID : 2
Format : AC-3
Format/Info : Audio Coding 3
Mode extension : CM (complete main)
Format settings, Endianness : Big
Codec ID : A_AC3
Duration : 2h 2mn
Bit rate mode : Constant
Bit rate : 640 Kbps
Channel(s) : 6 channels
Channel positions : Front: L C R, Side: L R, LFE
Sampling rate : 48.0 KHz
Compression mode : Lossy
Stream size : 562 MiB (30%)
Language : Italian
Default : Yes
Forced : No

Text #1
ID : 3
Format : UTF-8
Codec ID : S_TEXT/UTF8
Codec ID/Info : UTF-8 Plain Text
Title : FORCED
Language : Italian
Default : Yes
Forced : Yes

Text #2
ID : 4
Format : UTF-8
Codec ID : S_TEXT/UTF8
Codec ID/Info : UTF-8 Plain Text
Title : REGOLARI
Language : Italian
Default : No
Forced : No


Screenshots

Zona d'ombra - Una scomoda verità (2015)

Zona d'ombra - Una scomoda verità (2015)

Zona d'ombra - Una scomoda verità (2015)