Akira Kurosawa's Dreams (1990)

Posted By: Morocco
Akira Kurosawa's Dreams (1990)

Akira Kurosawa's Dreams (1990)
DVDRip | Japanese | 1h59min | 720 x 400 | 23.976 fps | MP4 | AVC High@L4.2 @ 518 Kbps | AAC @ 64 Kbps | 501 MB
Subtitles : English, French, Spanish
Genre : Drama, Fantasy

This is essentially eight separate short films, though with some overlaps in terms of characters and thematic material - chiefly that of man's relationship with his environment. 'Sunshine Through The Rain': a young boy is told not to go out on the day when both weather conditions occur, because that's when the foxes hold their wedding procession, which could have fatal consequences for those who witness it. 'The Peach Orchard': the same young boy encounters the spirits of the peach trees that have been cut down by heartless humans. 'The Blizzard': a team of mountaineers are saved from a blizzard by spiritual intervention. 'The Tunnel': a man encounters the ghosts of an army platoon, whose deaths he was responsible for. 'Crows': an art student encounters 'Vincent Van Gogh' and enters the world of his paintings. 'Mount Fuji in Red': nuclear meltdown threatens the devastation of Japan. 'The Weeping Demon': a portrait of a post-nuclear world populated by human mutations..


Format : MPEG-4
Format profile : Base Media
Codec ID : isom
File size : 501 MiB
Duration : 1h 59mn
Overall bit rate : 586 Kbps
Encoded date : UTC 2011-03-19 09:27:59
Tagged date : UTC 2011-03-19 09:27:59

Video
ID : 1
Format : AVC
Format/Info : Advanced Video Codec
Format profile : High@L4.2
Format settings, CABAC : Yes
Format settings, ReFrames : 7 frames
Codec ID : avc1
Codec ID/Info : Advanced Video Coding
Duration : 1h 59mn
Bit rate mode : Variable
Bit rate : 518 Kbps
Maximum bit rate : 3 537 Kbps
Width : 720 pixels
Height : 400 pixels
Display aspect ratio : 16:9
Frame rate mode : Constant
Frame rate : 23.976 fps
Color space : YUV
Chroma subsampling : 4:2:0
Bit depth : 8 bits
Scan type : Progressive
Bits/(Pixel*Frame) : 0.075
Stream size : 444 MiB (89%)
Writing library : x264 core 114 r1913 5fd3dce
Encoding settings : cabac=1 / ref=7 / deblock=1:0:0 / analyse=0x3:0x113 / me=umh / subme=7 / psy=1 / psy_rd=1.00:0.00 / mixed_ref=1 / me_range=32 / chroma_me=1 / trellis=1 / 8x8dct=1 / cqm=0 / deadzone=21,11 / fast_pskip=1 / chroma_qp_offset=-2 / threads=3 / sliced_threads=0 / nr=0 / decimate=1 / interlaced=0 / constrained_intra=0 / bframes=3 / b_pyramid=2 / b_adapt=1 / b_bias=0 / direct=1 / weightb=1 / open_gop=0 / weightp=2 / keyint=250 / keyint_min=23 / scenecut=40 / intra_refresh=0 / rc_lookahead=40 / rc=2pass / mbtree=1 / bitrate=518 / ratetol=2.0 / qcomp=0.60 / qpmin=0 / qpmax=51 / qpstep=4 / cplxblur=20.0 / qblur=0.5 / vbv_maxrate=31250 / vbv_bufsize=31250 / nal_hrd=none / ip_ratio=1.40 / aq=1:1.00
Encoded date : UTC 2011-03-19 06:49:15
Tagged date : UTC 2011-03-19 09:28:15

Audio
ID : 2
Format : AAC
Format/Info : Advanced Audio Codec
Format profile : HE-AAC / LC
Codec ID : 40
Duration : 1h 59mn
Bit rate mode : Variable
Bit rate : 64.0 Kbps
Maximum bit rate : 121 Kbps
Channel(s) : 2 channels
Channel positions : Front: L R
Sampling rate : 48.0 KHz / 24.0 KHz
Compression mode : Lossy
Stream size : 54.7 MiB (11%)
Title : Original Audio
Language : Japanese
Encoded date : UTC 2011-03-19 09:28:10
Tagged date : UTC 2011-03-19 09:28:15


Akira Kurosawa's Dreams (1990)


~ Single Link ~



No Mirrors !