PBS - American Masters: Billie Jean King (2013)

Posted By: notbanned
PBS - American Masters: Billie Jean King (2013)

PBS - American Masters: Billie Jean King (2013)
HDTV | 1280x720 | .MKV/AVC @ 2940 Kbps | 1h 23mn | Audio: English AC3 384 kbps, 2 channels | Subs: English | 1.97 GiB
Genre: Documentary

Billie Jean King is the single most important female athlete of the 20th century, winner of 39 Grand Slam titles and a major force in changing and democratizing the cultural landscape. AMERICAN MASTERS looks back to the 12-year-old girl who played tennis on public courts, observed disparity and, as she soared athletically, never stopped trying to remedy inequality. Perhaps best remembered from "The Battle of the Sexes" match vs. Bobby Riggs on Sept. 20, 1973, her competitiveness on the court was matched by her efforts on behalf of women and the LGBT community, and her commitment to prove there is strength in diversity. King presents her own story, with perspective from Serena and Venus Williams, Hillary Clinton, Maria Sharapova, members of the Virginia Slims Circuit "Original 9" including Rosie Casals, Gloria Steinem, Chris Evert, Bobby Riggs' son Larry, family, friends, and many others. Through these interviews and archival footage, the film illustrates the life of a woman whose journey became not just a battle for personal glory but a sociopolitical battle for equality for all.


General
Unique ID : 233086381136276165370025618794799967389 (0xAF5ACDD9E2B964ADB8A79572FB482C9D)
Complete name : american.masters.s26e04.billie.jean.king.mkv
Format : Matroska
Format version : Version 4 / Version 2
File size : 1.97 GiB
Duration : 1h 23mn
Overall bit rate : 3 391 Kbps

Video
ID : 1
Format : AVC
Format/Info : Advanced Video Codec
Format profile : High@L4.1
Format settings, CABAC : Yes
Format settings, ReFrames : 5 frames
Codec ID : V_MPEG4/ISO/AVC
Duration : 1h 23mn
Bit rate : 2 940 Kbps
Width : 1 280 pixels
Height : 720 pixels
Display aspect ratio : 16:9
Frame rate mode : Constant
Frame rate : 29.970 fps
Color space : YUV
Chroma subsampling : 4:2:0
Bit depth : 8 bits
Scan type : Progressive
Bits/(Pixel*Frame) : 0.106
Stream size : 1.71 GiB (87%)
Writing library : x264 core 148 r2579 73ae2d1
Encoding settings : cabac=1 / ref=5 / deblock=1:0:0 / analyse=0x3:0x113 / me=umh / subme=8 / psy=1 / psy_rd=1.00:0.00 / mixed_ref=1 / me_range=16 / chroma_me=1 / trellis=1 / 8x8dct=1 / cqm=0 / deadzone=21,11 / fast_pskip=1 / chroma_qp_offset=-2 / threads=12 / lookahead_threads=2 / sliced_threads=0 / nr=0 / decimate=1 / interlaced=0 / bluray_compat=0 / constrained_intra=0 / bframes=3 / b_pyramid=2 / b_adapt=2 / b_bias=0 / direct=3 / weightb=1 / open_gop=0 / weightp=2 / keyint=250 / keyint_min=25 / scenecut=40 / intra_refresh=0 / rc_lookahead=50 / rc=crf / mbtree=1 / crf=20.0 / qcomp=0.60 / qpmin=0 / qpmax=69 / qpstep=4 / ip_ratio=1.40 / aq=1:1.00
Language : English
Default : Yes
Forced : No

Audio
ID : 2
Format : AC-3
Format/Info : Audio Coding 3
Mode extension : CM (complete main)
Format settings, Endianness : Big
Codec ID : A_AC3
Duration : 1h 23mn
Bit rate mode : Constant
Bit rate : 384 Kbps
Channel(s) : 2 channels
Channel positions : Front: L R
Sampling rate : 48.0 KHz
Compression mode : Lossy
Stream size : 228 MiB (11%)
Language : English
Default : Yes
Forced : No

Text
ID : 3
Format : UTF-8
Codec ID : S_TEXT/UTF8
Codec ID/Info : UTF-8 Plain Text
Language : English
Default : No
Forced : No


Screenshots:

PBS - American Masters: Billie Jean King (2013)

PBS - American Masters: Billie Jean King (2013)

PBS - American Masters: Billie Jean King (2013)