Subcategories

Apollo 18 (Release September 2, 2011) Trailer

Posted By: a_l_chemist
Apollo 18 (Release September 2, 2011) Trailer

Apollo 18 (Release September 2, 2011) Trailer
MOV | AVC | 1920x1056, 23,976 fps, 9338 kbps | English: AAC, 2ch, 96 kbps | 02:28 mins | 167 MB
Genre: Horror | Sci-Fi | Thriller

Apollo 18 is an upcoming 2011 science fiction film directed by Gonzalo Lopez-Gallego and produced by Timur Bekmambetov. In an interview with Entertainment Weekly, Dimension Films head Bob Weinstein denied the film was a work of fiction, stating that “We didn’t shoot anything, we found it. Found baby!”

Apollo 18 (Release September 2, 2011) Trailer

Plot: A found footage-style film about a fictional post-Apollo 17 mission to the Moon that takes on a premise of why we never went back. The plot involves a government coverup of the Apollo 18 mission after aliens on the Moon discovered the crew and began to kill them off one by one.
–from wikipedia
…..IMDb
Apollo 18 (Release September 2, 2011) Trailer

Apollo 18 (Release September 2, 2011) Trailer

Apollo 18 (Release September 2, 2011) Trailer

Apollo 18 (Release September 2, 2011) Trailer

Apollo 18 (Release September 2, 2011) Trailer

General
Complete name : F:\Movies\Trailers\Apollo 18\Apollo_18_Trailer.mov
Format : MPEG-4
Format profile : QuickTime
Codec ID : qt
File size : 167 MiB
Duration : 2mn 28s
Overall bit rate : 9 440 Kbps
Movie name : Apollo 18
Movie name/More : In theaters 2011
Encoded date : UTC 2011-02-17 22:30:12
Tagged date : UTC 2011-02-17 22:30:16
Writing library : Apple QuickTime 7.6.0

Video
ID : 1
Format : AVC
Format/Info : Advanced Video Codec
Format profile : Main@L4.0
Format settings, CABAC : No
Format settings, ReFrames : 2 frames
Format settings, GOP : M=2, N=60
Codec ID : avc1
Codec ID/Info : Advanced Video Coding
Duration : 2mn 28s
Bit rate mode : Variable
Bit rate : 9 338 Kbps
Width : 1 920 pixels
Height : 1 056 pixels
Display aspect ratio : 16:9
Frame rate mode : Constant
Frame rate : 23.976 fps
Color space : YUV
Chroma subsampling : 4:2:0
Bit depth : 8 bits
Scan type : Progressive
Bits/(Pixel*Frame) : 0.192
Stream size : 165 MiB (99%)
Language : English
Encoded date : UTC 2011-02-17 21:14:35
Tagged date : UTC 2011-02-17 22:30:16
Color primaries : BT.709-5, BT.1361, IEC 61966-2-4, SMPTE RP177
Transfer characteristics : BT.709-5, BT.1361
Matrix coefficients : BT.709-5, BT.1361, IEC 61966-2-4 709, SMPTE RP177

Audio
ID : 2
Format : AAC
Format/Info : Advanced Audio Codec
Format profile : LC
Codec ID : 40
Duration : 2mn 28s
Bit rate mode : Constant
Bit rate : 96.0 Kbps
Channel(s) : 2 channels
Channel positions : Front: L R
Sampling rate : 44.1 KHz
Compression mode : Lossy
Stream size : 1.73 MiB (1%)
Language : English
Encoded date : UTC 2011-02-17 21:14:35
Tagged date : UTC 2011-02-17 22:30:16

Menu
ID : 3
Language : English
Encoded date : UTC 2011-02-17 21:14:35
Tagged date : UTC 2011-02-17 22:30:16

Fileserve
download

Filesonic
mirror

Trailers on AvaxHome

My blog on AvaxHome

.: No Mirrors Please :.