Subcategories

BBC Scotland Investigate - Fife's Child Killings: The Untold Story (2017)

Posted By: notbanned
BBC Scotland Investigate - Fife's Child Killings: The Untold Story (2017)

BBC Scotland Investigate - Fife's Child Killings: The Untold Story (2017)
HDTV | 1280x720 | .MKV/AVC @ 2194 Kbps | 58 min 45 s | 1023 MiB
Audio: English AC3 192 kbps, 2 channels | Subs: English
Genre: Documentary

Lisa Summers reveals new evidence about why three children died in Fife in 2014 despite social work involvement. Why did Liam Fee, Madison Horn and Mikaeel Kular die and could more have been done to protect them? Lisa hears from key witnesses who have never spoken before, as well as department insiders. And the programme reveals serious concerns about whether we've been told the whole truth about cases which shocked the nation.


General
Complete name : bbc.scotland.investigates.fifes.chld.killings.the.untold.story.720p.mkv
Format : Matroska
Format version : Version 2
File size : 1 023 MiB
Duration : 58 min 45 s
Overall bit rate : 2 435 kb/s

Video
ID : 1
Format : AVC
Format/Info : Advanced Video Codec
Format profile : High@L4.1
Format settings, CABAC : Yes
Format settings, ReFrames : 5 frames
Codec ID : V_MPEG4/ISO/AVC
Duration : 58 min 45 s
Bit rate : 2 194 kb/s
Width : 1 280 pixels
Height : 720 pixels
Display aspect ratio : 16:9
Frame rate mode : Constant
Frame rate : 25.000 FPS
Color space : YUV
Chroma subsampling : 4:2:0
Bit depth : 8 bits
Scan type : Progressive
Bits/(Pixel*Frame) : 0.095
Stream size : 922 MiB (90%)
Writing library : x264 core 152 r2851 ba24899
Encoding settings : cabac=1 / ref=5 / deblock=1:0:0 / analyse=0x3:0x113 / me=hex / subme=8 / psy=1 / psy_rd=1.00:0.00 / mixed_ref=1 / me_range=16 / chroma_me=1 / trellis=2 / 8x8dct=1 / cqm=0 / deadzone=21,11 / fast_pskip=1 / chroma_qp_offset=-2 / threads=12 / lookahead_threads=2 / sliced_threads=0 / nr=0 / decimate=1 / interlaced=0 / bluray_compat=0 / constrained_intra=0 / bframes=3 / b_pyramid=2 / b_adapt=1 / b_bias=0 / direct=3 / weightb=1 / open_gop=0 / weightp=2 / keyint=250 / keyint_min=25 / scenecut=40 / intra_refresh=0 / rc_lookahead=50 / rc=crf / mbtree=1 / crf=21.0 / qcomp=0.60 / qpmin=0 / qpmax=69 / qpstep=4 / ip_ratio=1.40 / aq=1:1.00
Default : Yes
Forced : No

Audio
ID : 2
Format : AC-3
Format/Info : Audio Coding 3
Format settings, Endianness : Big
Codec ID : A_AC3
Duration : 58 min 45 s
Bit rate mode : Constant
Bit rate : 192 kb/s
Channel(s) : 2 channels
Channel positions : Front: L R
Sampling rate : 48.0 kHz
Frame rate : 31.250 FPS (1536 spf)
Bit depth : 16 bits
Compression mode : Lossy
Stream size : 80.7 MiB (8%)
Service kind : Complete Main
Default : Yes
Forced : No

Text
ID : 3
Format : ASS
Codec ID : S_TEXT/ASS
Codec ID/Info : Advanced Sub Station Alpha
Compression mode : Lossless
Language : English
Default : No
Forced : No


Screenshots:

BBC Scotland Investigate - Fife's Child Killings: The Untold Story (2017)

BBC Scotland Investigate - Fife's Child Killings: The Untold Story (2017)

BBC Scotland Investigate - Fife's Child Killings: The Untold Story (2017)

BBC Scotland Investigate - Fife's Child Killings: The Untold Story (2017)