Tags
Language
Tags

Central Airport THF (2018)

Posted By: notbanned
SD / DVDRip IMDb
Central Airport THF (2018)

Central Airport THF (2018)
DVDRip | 720x310 | .MKV/AVC @ 445 Kbps | 1 h 37 min | 410 MiB
Audio: العربية AAC 140 kbps, 2 channels | Subs: English
Genre: Documentary

Berlin's Tempelhof Airport was opened in 1923 and, under Adolf Hitler, extended to become the world's largest airport which was finally closed in 2008. But even today Tempelhof Airport remains a place of arrivals and departures being used simultaneously as a refugee shelter and a leisure park for the inhabitants of Berlin. A historically unique moment for a portrait of this city within a city, but also of a European society in a state of emergency, caught between crisis and utopia.

General
Unique ID : 190603953645427206614930358444340469456 (0x8F64FC76953D5E7BB34769765E4ADED0)
Complete name : central.airport.thf.2018.dvdrip.mkv
Format : Matroska
Format version : Version 4 / Version 2
File size : 410 MiB
Duration : 1 h 37 min
Overall bit rate : 588 kb/s

Video
ID : 1
Format : AVC
Format/Info : Advanced Video Codec
Format profile : High@L3.1
Format settings, CABAC : Yes
Format settings, ReFrames : 5 frames
Codec ID : V_MPEG4/ISO/AVC
Duration : 1 h 37 min
Bit rate : 445 kb/s
Width : 720 pixels
Height : 310 pixels
Display aspect ratio : 2.35:1
Frame rate mode : Constant
Frame rate : 25.000 FPS
Color space : YUV
Chroma subsampling : 4:2:0
Bit depth : 8 bits
Scan type : Progressive
Bits/(Pixel*Frame) : 0.080
Stream size : 310 MiB (76%)
Writing library : x264 core 157 r2969 d4099dd
Encoding settings : cabac=1 / ref=5 / deblock=1:-3:-3 / analyse=0x3:0x113 / me=umh / subme=8 / psy=1 / psy_rd=0.80:0.00 / mixed_ref=1 / me_range=16 / chroma_me=1 / trellis=2 / 8x8dct=1 / cqm=0 / deadzone=21,11 / fast_pskip=1 / chroma_qp_offset=-2 / threads=10 / lookahead_threads=1 / sliced_threads=0 / nr=0 / decimate=1 / interlaced=0 / bluray_compat=0 / constrained_intra=0 / bframes=3 / b_pyramid=2 / b_adapt=2 / b_bias=0 / direct=3 / weightb=1 / open_gop=0 / weightp=2 / keyint=250 / keyint_min=25 / scenecut=40 / intra_refresh=0 / rc_lookahead=50 / rc=crf / mbtree=1 / crf=19.0 / qcomp=0.60 / qpmin=0 / qpmax=69 / qpstep=4 / ip_ratio=1.40 / aq=1:1.00
Language : English
Default : Yes
Forced : No

Audio
ID : 2
Format : AAC
Format/Info : Advanced Audio Codec
Format profile : LC
Codec ID : A_AAC
Duration : 1 h 37 min
Bit rate : 140 kb/s
Channel(s) : 2 channels
Channel positions : Front: L R
Sampling rate : 48.0 kHz
Frame rate : 46.875 FPS (1024 spf)
Compression mode : Lossy
Delay relative to video : 9 ms
Stream size : 97.9 MiB (24%)
Language : Arabic
Default : Yes
Forced : No

Text
ID : 3
Format : UTF-8
Codec ID : S_TEXT/UTF8
Codec ID/Info : UTF-8 Plain Text
Duration : 1 h 32 min
Bit rate : 30 b/s
Count of elements : 553
Stream size : 20.8 KiB (0%)
Language : English
Default : Yes
Forced : Yes

Menu
00:00:00.000 : en:Chapter 01
00:05:38.120 : en:Chapter 02
00:08:28.360 : en:Chapter 03
00:14:55.960 : en:Chapter 04
00:25:01.760 : en:Chapter 05
00:31:03.000 : en:Chapter 06
00:37:22.080 : en:Chapter 07
00:46:42.680 : en:Chapter 08
00:50:53.240 : en:Chapter 09
01:04:16.080 : en:Chapter 10
01:09:16.320 : en:Chapter 11
01:15:10.920 : en:Chapter 12
01:20:05.280 : en:Chapter 13
01:29:47.720 : en:Chapter 14
01:33:56.160 : en:Chapter 15
01:37:32.160 : en:Chapter 16


Screenshots:

Central Airport THF (2018)

Central Airport THF (2018)

Central Airport THF (2018)

Central Airport THF (2018)