(Arte) La CIA et le trésor de guerre japonais (2011)

Posted By: Morocco
(Arte) La CIA et le trésor de guerre japonais (2011)

(Arte) La CIA et le trésor de guerre japonais (2011)
TNT-Rip by Clo2 | French | 52min | 576 x 320 | 25.000 fps | Avi | MPEG-4 XviD @ 744 Kbps | MP3 @ 112 Kbps | 325 MB
Genre : Documentaire

Les Américains ont-ils financé des opérations anticommunistes avec le fruit de pillages japonais intervenus durant la Seconde Guerre mondiale ? Récit d'une rocambolesque chasse au trésor lancée dans les années 80.

Début 1987 - soit environ un an après l'arrivée au pouvoir de Cory Aquino, qui mettait fin aux années de la dictature Marcos -, l'ancien général américain John Singlaub arrive à Manille. Longtemps chargé des "opérations spéciales" de la CIA en Asie, cet homme ambigu a demandé des permis de fouilles pour deux cent neuf sites disséminés aux Philippines. Objectif : retrouver le trésor de guerre dit "de Yamashita'", du nom d'un général japonais exécuté en 1946 pour crimes de guerre.

Dès la fin des années 30, en effet, l'armée de l'empereur Hirohito a entamé un pillage systématique des zones conquises en Asie du Sud-Est et en Chine : baptisée pudiquement "Lys d'or", l'opération a permis de constituer un formidable butin, composé d'or en pépites et en lingots, de bijoux et d'oeuvres d'art. Lors de l'occupation de la Chine, les soldats nippons ont mis à sac temples, banques et résidences privées. Mais après la défaite du Japon, on ignore ce qu'il est advenu du fruit de cet immense pillage, malgré plusieurs hypothèses. Le trésor aurait été caché dans des galeries souterraines, en diverses îles de l'archipel philippin. Une partie a pu être mise en sûreté par deux yakuzas notoires, qui l'auraient ensuite confiée aux Américains - en échange de leur impunité.

Vainqueur du Japon, puis chef des forces d'occupation en Asie, le général MacArthur avait-il conclu des accords secrets pour que l'or dérobé serve à financer la lutte contre l'URSS, la Chine communiste, ainsi que tout groupe ou régime suspect de sympathies pour ces deux puissances ennemies ?

En clair, le trésor de Yamashita fut-il le nerf de la guerre froide ? Pour tenter de démêler le mythe de la réalité, ce film suit l'équipée parfois rocambolesque de John Singlaub, donne la parole à des témoins oculaires de l'époque et laisse surtout une large place aux historiens qui, depuis 2005, ont eu accès à des archives déclassifiées, notamment aux États-Unis.

Format : AVI
Format/Info : Audio Video Interleave
File size : 325 MiB
Duration : 52mn 32s
Overall bit rate : 866 Kbps
Writing application : VirtualDubMod 1.5.10.3 Fr | www.virtualdub-fr.org || (build 2550/release)
Writing library : VirtualDubMod build 2550/release

Video
ID : 0
Format : MPEG-4 Visual
Format profile : Advanced Simple@L5
Format settings, BVOP : 2
Format settings, QPel : No
Format settings, GMC : No warppoints
Format settings, Matrix : Default (MPEG)
Muxing mode : Packed bitstream
Codec ID : XVID
Codec ID/Hint : XviD
Duration : 52mn 32s
Bit rate : 744 Kbps
Width : 576 pixels
Height : 320 pixels
Display aspect ratio : 16:9
Frame rate : 25.000 fps
Color space : YUV
Chroma subsampling : 4:2:0
Bit depth : 8 bits
Scan type : Progressive
Compression mode : Lossy
Bits/(Pixel*Frame) : 0.162
Stream size : 280 MiB (86%)
Writing library : XviD 57

Audio
ID : 1
Format : MPEG Audio
Format version : Version 1
Format profile : Layer 3
Mode : Joint stereo
Mode extension : MS Stereo
Codec ID : 55
Codec ID/Hint : MP3
Duration : 52mn 32s
Bit rate mode : Constant
Bit rate : 112 Kbps
Channel(s) : 2 channels
Sampling rate : 48.0 KHz
Compression mode : Lossy
Stream size : 42.1 MiB (13%)
Alignment : Aligned on interleaves
Interleave, duration : 40 ms (1.00 video frame)
Interleave, preload duration : 504 ms
Writing library : LAME3.98r
Encoding settings : -m j -V 4 -q 3 -lowpass 15.6 -b 112


(Arte) La CIA et le trésor de guerre japonais (2011)

(Arte) La CIA et le trésor de guerre japonais (2011)

(Arte) La CIA et le trésor de guerre japonais (2011)

No Pass ;)

Un merci ?

D'autres documentaires ? >> Listing des documentaires