BBC - City Beneath the Waves: Pavlopetri (2011)

Posted By: Tutorial
BBC - City Beneath the Waves: Pavlopetri (2011)

BBC - City Beneath the Waves: Pavlopetri (2011)
PDTV | 720 x 400 | .AVI/XviD @ 1533 Kbps | 58mn 46s | 702 MB
Audio: English AC-3 128 Kbps, 2 channels | Subs: None
Genre: Documentary, History

Just off the southern coast of mainland Greece lies the oldest submerged city in the world. A city that thrived for 2000 years during the time that saw the birth of Western civilisation. An international team of experts uses the latest technology to investigate the site and digitally raise it from the seabed, to reveal the secrets of Pavlopetri. Led by underwater archaeologist Dr Jon Henderson, the team use the latest in cutting-edge science and technology to prise age-old secrets from the complex of streets and stone buildings that lie less than five metres below the surface. State-of-the-art CGI helps to raise the city from the seabed revealing, for the first time in 3,500 years, how Pavlopetri would once have looked and operated. Jon Henderson is leading this ground-breaking project in collaboration with a team from the Hellenic Ministry of Culture, and Nic Flemming, the man whose hunch led to the intriguing discovery of Pavlopetri in 1967. Also working alongside the archaeologists are a team from the Australian Centre for Field Robotics, who aim to take underwater archaeology into the 21st century.

also You can look my other last: History-posts

General
Complete name : BBC.City.Beneath.the.Waves.Pavlopetri.avi
Format : AVI
Format/Info : Audio Video Interleave
File size : 702 MiB
Duration : 58 min 46 s
Overall bit rate : 1 671 kb/s
Director : Done with AutoMKV! 0.98.4
Writing application : VirtualDubMod 1.5.10.2 (build 2542/release)
Writing library : VirtualDubMod build 2542/release

Video
ID : 0
Format : MPEG-4 Visual
Format profile : Advanced Simple@L5
Format settings, BVOP : 2
Format settings, QPel : No
Format settings, GMC : No warppoints
Format settings, Matrix : Custom
Codec ID : XVID
Codec ID/Hint : XviD
Duration : 58 min 46 s
Bit rate : 1 533 kb/s
Width : 720 pixels
Height : 400 pixels
Display aspect ratio : 16:9
Frame rate : 25.000 FPS
Color space : YUV
Chroma subsampling : 4:2:0
Bit depth : 8 bits
Scan type : Progressive
Compression mode : Lossy
Bits/(Pixel*Frame) : 0.213
Stream size : 644 MiB (92%)
Writing library : XviD 1.2.1 (UTC 2008-12-04)

Audio
ID : 1
Format : AC-3
Format/Info : Audio Coding 3
Format settings, Endianness : Big
Codec ID : 2000
Duration : 58 min 46 s
Bit rate mode : Constant
Bit rate : 128 kb/s
Channel(s) : 2 channels
Channel positions : Front: L R
Sampling rate : 48.0 kHz
Frame rate : 31.250 FPS (1536 spf)
Bit depth : 16 bits
Compression mode : Lossy
Stream size : 53.8 MiB (8%)
Alignment : Split accross interleaves
Interleave, duration : 40 ms (1.00 video frame)
Interleave, preload duration : 500 ms
Service kind : Complete Main
Screenshots

BBC - City Beneath the Waves: Pavlopetri (2011)

BBC - City Beneath the Waves: Pavlopetri (2011)

BBC - City Beneath the Waves: Pavlopetri (2011)

BBC - City Beneath the Waves: Pavlopetri (2011)

Welcome to my blog - daily update!

BBC - City Beneath the Waves: Pavlopetri (2011)