DC's Legends of Tomorrow S02E09-10

Posted By: Tavaz
SD / WEBRip IMDb
DC's Legends of Tomorrow S02E09-10

DC's Legends of Tomorrow S02E09-10
HDTV | MKV | 720x404 | French | H264 @ 976 kbps | AAC @ 116 kbps | 39 min 31s | 2x310 MiB
Genre: Action, Adventure, Drama, Sci-Fi

Après avoir vu le futur, Rip Hunter, un Maître du temps du 22ème siècle, décide - contre l'avis de son Conseil - de stopper le tyran immortel qui fera basculer le monde dans le chaos. Pour accomplir sa mission, il constitue une équipe d'élite qui l'aidera à traquer le méchant à travers le temps et arrêter sa montée au pouvoir. The A.T.O.M., Captain Cold, Heat Wave, White Canary, Firestorm, Hawkgirl et Hawkman saisissent cette opportunité de prendre en mains leur destinée. Parviendront-il à sauver l'Humanité et marquer l'Histoire en devenant les légendes de demain?


dcs.legends.of.tomorrow.s02e10.french.hdtv.x264-amb3r.mkv (262.6 MB)
dcs.legends.of.tomorrow.s02e09.french.hdtv.x264-amb3r.mkv (309.7 MB)



General
Unique ID : 207553077066442625136029598363176392939 (0x9C2544C418BDC55CACF92F0E6ECFD8EB)
Complete name : ./dcs.legends.of.tomorrow.s02e09.french.hdtv.x264-amb3r.mkv
Format : Matroska
Format version : Version 2
File size : 310 MiB
Duration : 39 min 31 s
Overall bit rate : 1 095 kb/s
Encoded date : UTC 2017-11-21 21:07:26
Writing application : mkvmerge v18.0.0 ('Apricity') 64-bit
Writing library : libebml v1.3.5 + libmatroska v1.4.8

Video
ID : 1
Format : AVC
Format/Info : Advanced Video Codec
Format profile : High@L3.1
Format settings : CABAC / 5 Ref Frames
Format settings, CABAC : Yes
Format settings, RefFrames : 5 frames
Codec ID : V_MPEG4/ISO/AVC
Duration : 39 min 31 s
Bit rate : 977 kb/s
Width : 720 pixels
Height : 404 pixels
Display aspect ratio : 16:9
Frame rate mode : Constant
Frame rate : 25.000 FPS
Color space : YUV
Chroma subsampling : 4:2:0
Bit depth : 8 bits
Scan type : Progressive
Bits/(Pixel*Frame) : 0.134
Stream size : 276 MiB (89%)
Writing library : x264 core 152 r2851 ba24899
Encoding settings : cabac=1 / ref=5 / deblock=1:-3:-3 / analyse=0x3:0x112 / me=umh / subme=8 / psy=1 / psy_rd=1.00:0.00 / mixed_ref=1 / me_range=32 / chroma_me=1 / trellis=2 / 8x8dct=1 / cqm=0 / deadzone=21,11 / fast_pskip=0 / chroma_qp_offset=-2 / threads=12 / lookahead_threads=2 / sliced_threads=0 / nr=0 / decimate=1 / interlaced=0 / bluray_compat=0 / constrained_intra=0 / bframes=5 / b_pyramid=2 / b_adapt=1 / b_bias=0 / direct=3 / weightb=1 / open_gop=0 / weightp=2 / keyint=250 / keyint_min=25 / scenecut=40 / intra_refresh=0 / rc_lookahead=50 / rc=crf / mbtree=1 / crf=19.0 / qcomp=0.60 / qpmin=0 / qpmax=69 / qpstep=4 / vbv_maxrate=17500 / vbv_bufsize=17500 / crf_max=0.0 / nal_hrd=none / filler=0 / ip_ratio=1.40 / aq=1:1.00
Default : Yes
Forced : No
Color range : Limited
Color primaries : BT.709
Transfer characteristics : BT.709
Matrix coefficients : BT.709

Audio
ID : 2
Format : AAC
Format/Info : Advanced Audio Codec
Format profile : LC
Codec ID : A_AAC-2
Duration : 39 min 31 s
Bit rate : 116 kb/s
Channel(s) : 2 channels
Channel positions : Front: L R
Sampling rate : 48.0 kHz
Frame rate : 46.875 FPS (1024 SPF)
Compression mode : Lossy
Delay relative to video : 9 ms
Stream size : 32.9 MiB (11%)
Default : Yes
Forced : No





DC's Legends of Tomorrow S02E09-10


DC's Legends of Tomorrow S02E09-10


DC's Legends of Tomorrow S02E09-10


DC's Legends of Tomorrow S02E09-10


DC's Legends of Tomorrow S02E09-10

All episodes