(Fr3) Devenir président et le rester - Les secrets des gourous de l'Elysée (2011)

Posted By: Morocco
(Fr3) Devenir président et le rester - Les secrets des gourous de l'Elysée (2011)

(Fr3) Devenir président et le rester - Les secrets des gourous de l'Elysée (2011)
TNT-Rip by Clo2 | French | 1h17min | 608 x 344 | 25.000 fps | Avi | MPEG-4 XviD @ 795 Kbps | MP3 @ 112 Kbps | 505 MB
Genre : Documentaire

Dans les années 80 et 90, deux hommes ont inventé une nouvelle technique pour s'emparer du pouvoir : recourir à la communication. Gérard Colé et Jacques Pilhan ont fait sortir la politique des poussières de la propagande. Ils étaient les hommes de l'ombre de François Mitterrand, Jacques Pilhan était aussi celui de Jacques Chirac et a appris à sa fille, Claude Chirac, les ficelles de son métier. Loin des clichés sur l'image en politique, l'histoire de ces conseillers donne des clés pour comprendre la présidentielle de 2012. Une histoire qui montre que les sondages peuvent condamner un candidat et que la communication peut le sauver.

Format : AVI
Format/Info : Audio Video Interleave
File size : 505 MiB
Duration : 1h 17mn
Overall bit rate : 917 Kbps
Writing application : VirtualDubMod 1.5.10.3 Fr | www.virtualdub-fr.org || (build 2550/release)
Writing library : VirtualDubMod build 2550/release

Video
ID : 0
Format : MPEG-4 Visual
Format profile : Advanced Simple@L5
Format settings, BVOP : 2
Format settings, QPel : No
Format settings, GMC : No warppoints
Format settings, Matrix : Default (H.263)
Muxing mode : Packed bitstream
Codec ID : XVID
Codec ID/Hint : XviD
Duration : 1h 17mn
Bit rate : 795 Kbps
Width : 608 pixels
Height : 344 pixels
Display aspect ratio : 16:9
Frame rate : 25.000 fps
Color space : YUV
Chroma subsampling : 4:2:0
Bit depth : 8 bits
Scan type : Progressive
Compression mode : Lossy
Bits/(Pixel*Frame) : 0.152
Stream size : 438 MiB (87%)
Writing library : XviD 57

Audio
ID : 1
Format : MPEG Audio
Format version : Version 1
Format profile : Layer 3
Mode : Joint stereo
Mode extension : MS Stereo
Codec ID : 55
Codec ID/Hint : MP3
Duration : 1h 17mn
Bit rate mode : Constant
Bit rate : 112 Kbps
Channel(s) : 2 channels
Sampling rate : 48.0 KHz
Compression mode : Lossy
Stream size : 61.8 MiB (12%)
Alignment : Aligned on interleaves
Interleave, duration : 40 ms (1.00 video frame)
Interleave, preload duration : 504 ms
Writing library : LAME3.98r
Encoding settings : -m j -V 4 -q 3 -lowpass 15.6 -b 112


(Fr3) Devenir président et le rester - Les secrets des gourous de l'Elysée (2011)

(Fr3) Devenir président et le rester - Les secrets des gourous de l'Elysée (2011)

(Fr3) Devenir président et le rester - Les secrets des gourous de l'Elysée (2011)

No Pass ;)

Un merci ?

D'autres documentaires ? >> Listing des documentaires