Disappeared: No Stone Unturned (2016)

Posted By: notbanned
Disappeared: No Stone Unturned (2016)

Disappeared: No Stone Unturned (2016)
HDTV | 1280x720 | .MKV/AVC @ 2187 Kbps | 42mn 32s | 798 MiB
Audio: English AC3 384 kbps, 6 channels | Subs: English
Genre: Documentary

60-year-old stonemason David Riemens, has one final meeting before driving to visit family. But he never returns home, and his truck is found abandoned. Desperate to find him, investigators look for clues, but David has vanished into thin air.
More info


General
Unique ID : 237270651202554254738826158296098176270 (0xB280AA4B0A5899D7B7B62A2D82347D0E)
Complete name : disappeared.s06e06.No.Stone.Unturned.mkv
Format : Matroska
Format version : Version 4 / Version 2
File size : 798 MiB
Duration : 42mn 32s
Overall bit rate : 2 623 Kbps

Video
ID : 1
Format : AVC
Format/Info : Advanced Video Codec
Format profile : High@L4.1
Format settings, CABAC : Yes
Format settings, ReFrames : 5 frames
Codec ID : V_MPEG4/ISO/AVC
Duration : 42mn 32s
Bit rate : 2 187 Kbps
Width : 1 280 pixels
Height : 720 pixels
Display aspect ratio : 16:9
Frame rate mode : Constant
Frame rate : 29.970 fps
Color space : YUV
Chroma subsampling : 4:2:0
Bit depth : 8 bits
Scan type : Progressive
Bits/(Pixel*Frame) : 0.079
Stream size : 665 MiB (83%)
Writing library : x264 core 148 r2694 3b70645
Encoding settings : cabac=1 / ref=5 / deblock=1:0:0 / analyse=0x3:0x113 / me=umh / subme=8 / psy=1 / psy_rd=1.00:0.00 / mixed_ref=1 / me_range=16 / chroma_me=1 / trellis=1 / 8x8dct=1 / cqm=0 / deadzone=21,11 / fast_pskip=1 / chroma_qp_offset=-2 / threads=12 / lookahead_threads=2 / sliced_threads=0 / nr=0 / decimate=1 / interlaced=0 / bluray_compat=0 / constrained_intra=0 / bframes=3 / b_pyramid=2 / b_adapt=2 / b_bias=0 / direct=3 / weightb=1 / open_gop=0 / weightp=2 / keyint=250 / keyint_min=25 / scenecut=40 / intra_refresh=0 / rc_lookahead=50 / rc=crf / mbtree=1 / crf=20.0 / qcomp=0.60 / qpmin=0 / qpmax=69 / qpstep=4 / ip_ratio=1.40 / aq=1:1.00
Default : Yes
Forced : No

Audio
ID : 2
Format : AC-3
Format/Info : Audio Coding 3
Mode extension : CM (complete main)
Format settings, Endianness : Big
Codec ID : A_AC3
Duration : 42mn 32s
Bit rate mode : Constant
Bit rate : 384 Kbps
Channel(s) : 6 channels
Channel positions : Front: L C R, Side: L R, LFE
Sampling rate : 48.0 KHz
Compression mode : Lossy
Stream size : 117 MiB (15%)
Language : English
Default : Yes
Forced : No

Text
ID : 3
Format : UTF-8
Codec ID : S_TEXT/UTF8
Codec ID/Info : UTF-8 Plain Text
Language : English
Default : No
Forced : No


Screenshots:

Disappeared: No Stone Unturned (2016)

Disappeared: No Stone Unturned (2016)

Disappeared: No Stone Unturned (2016)

Disappeared: No Stone Unturned (2016)