Don't Blink - Robert Frank (2015)

Posted By: notbanned
Don't Blink - Robert Frank (2015)

Don't Blink - Robert Frank (2015)
DVDRip | 718x404 | .MKV/AVC @ 1448 Kbps | 1h 22min | 925 MiB
Audio: English AAC 124 kbps, 2 channels | Subs: None
Genre: Documentary | Biography | History

Robert Frank revolutionized photography and independent film. He documented the Beats, Welsh coal miners, Peruvian Indians, The Stones, London bankers, and the Americans. This is the bumpy ride, revealed with unblinking honesty by the reclusive artist himself.
More info


General
Unique ID : 193441508716023814248046812394280545993 (0x91877ABAC4C66BB0B579C8A744CD6EC9)
Complete name : dont.blink.robert.frank.2015.limited.dvdrip.mkv
Format : Matroska
Format version : Version 4 / Version 2
File size : 925 MiB
Duration : 1 h 22 min
Overall bit rate : 1 574 kb/s

Video
ID : 1
Format : AVC
Format/Info : Advanced Video Codec
Format profile : High@L3.1
Format settings, CABAC : Yes
Format settings, ReFrames : 5 frames
Codec ID : V_MPEG4/ISO/AVC
Duration : 1 h 22 min
Bit rate : 1 448 kb/s
Width : 718 pixels
Height : 404 pixels
Display aspect ratio : 16:9
Original display aspect ratio : 16:9
Frame rate mode : Constant
Frame rate : 23.976 (24000/1001) FPS
Color space : YUV
Chroma subsampling : 4:2:0
Bit depth : 8 bits
Scan type : Progressive
Bits/(Pixel*Frame) : 0.208
Stream size : 851 MiB (92%)
Writing library : x264 core 148 r2744 b97ae06
Encoding settings : cabac=1 / ref=5 / deblock=1:-2:-2 / analyse=0x3:0x113 / me=umh / subme=8 / psy=1 / psy_rd=0.80:0.00 / mixed_ref=1 / me_range=16 / chroma_me=1 / trellis=2 / 8x8dct=1 / cqm=0 / deadzone=21,11 / fast_pskip=1 / chroma_qp_offset=-2 / threads=13 / lookahead_threads=2 / sliced_threads=0 / nr=0 / decimate=1 / interlaced=0 / bluray_compat=0 / constrained_intra=0 / bframes=3 / b_pyramid=2 / b_adapt=1 / b_bias=0 / direct=3 / weightb=1 / open_gop=0 / weightp=2 / keyint=240 / keyint_min=23 / scenecut=40 / intra_refresh=0 / rc_lookahead=50 / rc=crf / mbtree=1 / crf=19.0 / qcomp=0.60 / qpmin=0 / qpmax=69 / qpstep=4 / ip_ratio=1.40 / aq=1:1.00
Language : English
Default : Yes
Forced : No

Audio
ID : 2
Format : AAC
Format/Info : Advanced Audio Codec
Format profile : LC
Codec ID : A_AAC
Duration : 1 h 22 min
Bit rate : 124 kb/s
Channel(s) : 2 channels
Channel positions : Front: L R
Sampling rate : 48.0 kHz
Frame rate : 46.875 FPS (1024 spf)
Compression mode : Lossy
Delay relative to video : 9 ms
Stream size : 72.7 MiB (8%)
Language : English
Default : Yes
Forced : No

Menu
00:00:00.000 : en:Chapter 01
00:06:29.968 : en:Chapter 02
00:13:05.569 : en:Chapter 03
00:18:53.736 : en:Chapter 04
00:25:26.403 : en:Chapter 05
00:32:33.337 : en:Chapter 06
00:38:48.337 : en:Chapter 07
00:44:53.904 : en:Chapter 08
00:53:50.971 : en:Chapter 09
01:03:30.971 : en:Chapter 10
01:11:54.672 : en:Chapter 11
01:19:25.839 : en:Chapter 12
01:22:04.239 : en:Chapter 13


Screenshots:

Don't Blink - Robert Frank (2015)

Don't Blink - Robert Frank (2015)

Don't Blink - Robert Frank (2015)

Don't Blink - Robert Frank (2015)