(Fr5) L’Égypte - Le Sinaï, désert polychrome (2012)

Posted By: Morocco
(Fr5) L’Égypte - Le Sinaï, désert polychrome (2012)

(Fr5) L’Égypte - Le Sinaï, désert polychrome (2012)
TNT-Rip by Clo2 | French | 52min | 640 x 368 | 25.000 fps | Avi | MPEG-4 XviD @ 895 Kbps | MP3 @ 112 Kbps | 379 MB
Genre : Documentaire

Ce documentaire propose une découverte de l'Egypte et plus précisément de la région du Sinaï.

Si ses déserts sont majestueux, les fonds marins offrent aux plongeurs des spots admirables…

Format : AVI
Format/Info : Audio Video Interleave
File size : 379 MiB
Duration : 52mn 9s
Overall bit rate : 1 016 Kbps
Writing application : VirtualDubMod 1.5.10.3 Fr | www.virtualdub-fr.org || (build 2550/release)
Writing library : VirtualDubMod build 2550/release

Video
ID : 0
Format : MPEG-4 Visual
Format profile : Advanced Simple@L5
Format settings, BVOP : 2
Format settings, QPel : No
Format settings, GMC : No warppoints
Format settings, Matrix : Default (H.263)
Muxing mode : Packed bitstream
Codec ID : XVID
Codec ID/Hint : XviD
Duration : 52mn 9s
Bit rate : 895 Kbps
Width : 640 pixels
Height : 368 pixels
Display aspect ratio : 16:9
Frame rate : 25.000 fps
Color space : YUV
Chroma subsampling : 4:2:0
Bit depth : 8 bits
Scan type : Progressive
Compression mode : Lossy
Bits/(Pixel*Frame) : 0.152
Stream size : 334 MiB (88%)
Writing library : XviD 64

Audio
ID : 1
Format : MPEG Audio
Format version : Version 1
Format profile : Layer 3
Mode : Joint stereo
Mode extension : MS Stereo
Codec ID : 55
Codec ID/Hint : MP3
Duration : 52mn 9s
Bit rate mode : Constant
Bit rate : 112 Kbps
Channel(s) : 2 channels
Sampling rate : 48.0 KHz
Compression mode : Lossy
Stream size : 41.8 MiB (11%)
Alignment : Aligned on interleaves
Interleave, duration : 40 ms (1.00 video frame)
Interleave, preload duration : 504 ms
Writing library : LAME3.98r
Encoding settings : -m j -V 4 -q 3 -lowpass 15.6 -b 112


(Fr5) L’Égypte - Le Sinaï, désert polychrome (2012)

(Fr5) L’Égypte - Le Sinaï, désert polychrome (2012)

(Fr5) L’Égypte - Le Sinaï, désert polychrome (2012)

No Pass ;)

Un merci ?

D'autres documentaires ? >> Listing des documentaires