Gone with the Wind: The Remarkable Rise and Tragic Fall of Lynyrd Skynyrd (2015)

Posted By: notbanned
Gone with the Wind: The Remarkable Rise and Tragic Fall of Lynyrd Skynyrd (2015)

Gone with the Wind: The Remarkable Rise and Tragic Fall of Lynyrd Skynyrd (2015)
HDTV | 720x404 | .MKV/AVC @ 690 Kbps | 2h 43min | 919 MiB
Audio: English AAC 96 kbps, 2 channels | Subs: English
Genre: Documentary

When Lynyrd Skynyrd emerged onto the world stage in 1973, it was the result of a collective determination; the group had struggled and fought to gain real recognition ever since their formation eight years before. And although they were initially identified, both in the music industry and in the media, as just another act in the then booming Southern Rock movement, it became quickly apparent that not only were Skynyrd a distinctly individual collective, but also they had the potential to become one of the finest rock bands in history. Led by the headstrong and domineering Ronnie Van Zant, a tough, blue collar brawler with a powerful stage presence, distinctive vocals and gritty, honest lyrics, his energy and vision propelled the group until its tragic end in 1977. This films tells the story of the rise and fall of a remarkable band.
More info


General
Unique ID : 185256893566657896360473121951856874257 (0x8B5F2E0C1E6B216F9A0C5A4B897E5311)
Complete name : gone.with.the.wind.the.remarkable.rise.and.tragic.fall.of.lynyrd.skynyrd.hdtv.mkv
Format : Matroska
Format version : Version 4 / Version 2
File size : 919 MiB
Duration : 2 h 43 min
Overall bit rate : 788 kb/s

Video
ID : 1
Format : AVC
Format/Info : Advanced Video Codec
Format profile : High@L3.1
Format settings, CABAC : Yes
Format settings, ReFrames : 5 frames
Codec ID : V_MPEG4/ISO/AVC
Duration : 2 h 43 min
Bit rate : 690 kb/s
Width : 720 pixels
Height : 404 pixels
Display aspect ratio : 16:9
Frame rate mode : Constant
Frame rate : 25.000 FPS
Color space : YUV
Chroma subsampling : 4:2:0
Bit depth : 8 bits
Scan type : Progressive
Bits/(Pixel*Frame) : 0.095
Stream size : 805 MiB (88%)
Writing library : x264 core 148 r2762 90a61ec
Encoding settings : cabac=1 / ref=5 / deblock=1:0:0 / analyse=0x3:0x113 / me=hex / subme=8 / psy=1 / psy_rd=1.00:0.00 / mixed_ref=1 / me_range=16 / chroma_me=1 / trellis=2 / 8x8dct=1 / cqm=0 / deadzone=21,11 / fast_pskip=1 / chroma_qp_offset=-2 / threads=13 / lookahead_threads=2 / sliced_threads=0 / nr=0 / decimate=1 / interlaced=0 / bluray_compat=0 / constrained_intra=0 / bframes=3 / b_pyramid=2 / b_adapt=1 / b_bias=0 / direct=3 / weightb=1 / open_gop=0 / weightp=2 / keyint=250 / keyint_min=25 / scenecut=40 / intra_refresh=0 / rc_lookahead=50 / rc=crf / mbtree=1 / crf=21.0 / qcomp=0.60 / qpmin=0 / qpmax=69 / qpstep=4 / ip_ratio=1.40 / aq=1:1.00
Default : Yes
Forced : No
Color range : Limited
Matrix coefficients : BT.709

Audio
ID : 2
Format : AAC
Format/Info : Advanced Audio Codec
Format profile : LC
Codec ID : A_AAC
Duration : 2 h 43 min
Bit rate : 96.0 kb/s
Channel(s) : 2 channels
Channel positions : Front: L R
Sampling rate : 48.0 kHz
Frame rate : 46.875 FPS (1024 spf)
Compression mode : Lossy
Delay relative to video : 20 ms
Stream size : 111 MiB (12%)
Language : English
Default : Yes
Forced : No

Text
ID : 3
Format : UTF-8
Codec ID : S_TEXT/UTF8
Codec ID/Info : UTF-8 Plain Text
Duration : 2 h 42 min
Bit rate : 126 b/s
Count of elements : 3323
Stream size : 150 KiB (0%)
Language : English
Default : No
Forced : No


Screenshots:

La Femme infidele / The Unfaithful Wife (1969)

La Femme infidele / The Unfaithful Wife (1969)

La Femme infidele / The Unfaithful Wife (1969)

La Femme infidele / The Unfaithful Wife (1969)