BBC imagine Winter - Rachel Whiteread: Ghost in the Room (2017)

Posted By: notbanned
BBC imagine Winter - Rachel Whiteread: Ghost in the Room (2017)

BBC imagine Winter - Rachel Whiteread: Ghost in the Room (2017)
WEB-DL | 960x540 | .MP4/AVC @ 1505 Kbps | 1 h 2 min | 720 MiB
Audio: English AAC 96 kbps, 2 channels | Subs: None
Genre: Documentary

An intimate portrait of British sculptor Rachel Whiteread as she unpacks her life's work for a major retrospective at Tate Britain in London. Though she rose to prominence with the YBA generation of Young British Artists, Rachel Whiteread was always something of an outsider. Her work explores themes of memory and absence, casting sculptural forms from familiar domestic objects small and large, from sinks and hot water bottles to living rooms - and a terraced house. This film revisits Whiteread's acclaimed and controversial work House, a full-scale replica of the interior of a terraced house in London's East End that fuelled a national debate about contemporary art. Alan Yentob visits Rachel in her studio. She recalls the turbulent day in 1993 when she became the first woman to win the Turner Prize and simultaneously learned that house was to be demolished - and she would be obliged to accept a protest prize as the Worst Artist in the World. That day proved to be a turning point in a remarkable career. Since, Whiteread has represented Britain at the Venice Biennale and won the commission for yet another highly controversial, now universally-acclaimed work - The Holocaust Memorial in Vienna.


General
Complete name : imagine.Winter.2017.Rachel.Whiteread.Ghost.in.the.Room.mp4
Format : MPEG-4
Format profile : Base Media
Codec ID : isom (isom/iso2/avc1/mp41)
File size : 720 MiB
Duration : 1 h 2 min
Overall bit rate mode : Variable
Overall bit rate : 1 603 kb/s

Video
ID : 1
Format : AVC
Format/Info : Advanced Video Codec
Format profile : Main@L3.1
Format settings, CABAC : Yes
Format settings, ReFrames : 4 frames
Format settings, GOP : M=8, N=96
Codec ID : avc1
Codec ID/Info : Advanced Video Coding
Duration : 1 h 2 min
Bit rate : 1 505 kb/s
Width : 960 pixels
Height : 540 pixels
Display aspect ratio : 16:9
Frame rate mode : Constant
Frame rate : 25.000 FPS
Color space : YUV
Chroma subsampling : 4:2:0
Bit depth : 8 bits
Scan type : Progressive
Bits/(Pixel*Frame) : 0.116
Stream size : 676 MiB (94%)
Color range : Limited
Color primaries : BT.709
Transfer characteristics : BT.709
Matrix coefficients : BT.709

Audio
ID : 2
Format : AAC
Format/Info : Advanced Audio Codec
Format profile : HE-AAC / LC
Codec ID : 40
Duration : 1 h 2 min
Bit rate mode : Variable
Bit rate : 96.0 kb/s
Maximum bit rate : 98.1 kb/s
Channel(s) : 2 channels
Channel positions : Front: L R
Sampling rate : 48.0 kHz / 24.0 kHz
Frame rate : 23.438 FPS (1024 spf)
Compression mode : Lossy
Stream size : 42.5 MiB (6%)
Language : English
Default : Yes
Alternate group : 1


Screenshots:

BBC imagine Winter - Rachel Whiteread: Ghost in the Room (2017)

BBC imagine Winter - Rachel Whiteread: Ghost in the Room (2017)

BBC imagine Winter - Rachel Whiteread: Ghost in the Room (2017)

BBC imagine Winter - Rachel Whiteread: Ghost in the Room (2017)