Please register here if you want to download anything!

If domain in your address bar is different from the list below
PLEASE LEAVE THAT SITE IMMEDIATELY
❗IT'S A DANGEROUS FAKE❗



Spicy Magazines for Men! ;-)

BBC - Nadiya: Anxiety and Me (2019)

Posted By: notbanned
1080p (FullHD) / HDTV
BBC - Nadiya: Anxiety and Me (2019)

BBC - Nadiya: Anxiety and Me (2019)
HDTV | 1920x1080 | .MKV/AVC @ 3478 Kbps | 58mn 4s | 1.52 GiB
Audio: English AC3 192 kbps, 2 channels | Subs: None
Genre: Documentary

Since Nadiya Hussain won Bake Off in 2015 she’s rarely been off our screens. But behind the scenes Nadiya suffers from extreme anxiety and debilitating panic attacks, which she’s had since childhood. For decades, she has kept her anxiety a secret, ashamed to speak out.

She’s never had a proper diagnosis but thinks she has an anxiety disorder, and with around 5 million people suffering from the condition in the UK, Nadiya is not alone.

In this one-off documentary for BBC One, Nadiya sets out to find the cause of her anxiety, exploring the most effective, available treatments, whilst having therapy herself, in the hope of managing her anxiety.

She speaks bravely and honestly about what it’s like to live with anxiety and panic attacks; undergoing a course of cognitive behaviour therapy, each session is a step into the unknown. At times, it’s a difficult process, revealing buried memories and key moments from her past. These sessions are raw and honest, but Nadiya hopes her openness will inspire others to seek help rather than suffer in silence.

She wants to understand how anxiety is affecting the nation’s health, meeting fellow sufferers in the hope of understanding her own issues. Nadiya talks to Laura Bartley about her experiences of treating her anxiety with medication, visits a school in Brighton to see how they are tackling anxiety in their students, and goes online to meet Barry McDonagh, who offers support and therapy to an online community of around 250,000.

Nadiya wants to find out if her anxiety was something she was born with, fearing she might pass it onto her children. At Kings College London, Nadiya hopes groundbreaking research into the role of genetics and environment on anxiety disorders can give her the answers she needs.

Raw, open and honest, this documentary will speak to the millions of people in the UK suffering with anxiety disorders, shining a light and starting a debate about on an increasingly pressing issue.

General
Complete name : nadiya.anxiety.and.me.2019.1080p.mkv
Format : Matroska
Format version : Version 4 / Version 2
File size : 1.52 GiB
Duration : 58 min 4 s
Overall bit rate : 3 744 kb/s

Video
ID : 1
Format : AVC
Format/Info : Advanced Video Codec
Format profile : High@L4
Format settings, CABAC : Yes
Format settings, ReFrames : 4 frames
Format settings, GOP : M=8, N=24
Codec ID : V_MPEG4/ISO/AVC
Duration : 58 min 4 s
Bit rate : 3 478 kb/s
Width : 1 920 pixels
Height : 1 080 pixels
Display aspect ratio : 16:9
Frame rate mode : Constant
Frame rate : 25.000 FPS
Standard : Component
Color space : YUV
Chroma subsampling : 4:2:0
Bit depth : 8 bits
Scan type : MBAFF
Scan type, store method : Interleaved fields
Scan order : Top Field First
Bits/(Pixel*Frame) : 0.067
Stream size : 1.41 GiB (93%)
Default : Yes
Forced : No
Color range : Limited
Color primaries : BT.709
Transfer characteristics : BT.709
Matrix coefficients : BT.709

Audio
ID : 2
Format : AC-3
Format/Info : Audio Coding 3
Format settings, Endianness : Big
Codec ID : A_AC3
Duration : 58 min 4 s
Bit rate mode : Constant
Bit rate : 192 kb/s
Channel(s) : 2 channels
Channel positions : Front: L R
Sampling rate : 48.0 kHz
Frame rate : 31.250 FPS (1536 spf)
Bit depth : 16 bits
Compression mode : Lossy
Stream size : 79.8 MiB (5%)
Language : English
Service kind : Complete Main
Default : Yes
Forced : No


Screenshots:

BBC - Nadiya: Anxiety and Me (2019)

BBC - Nadiya: Anxiety and Me (2019)

BBC - Nadiya: Anxiety and Me (2019)

BBC - Nadiya: Anxiety and Me (2019)