National Geographic : Égypte, Les Secrets des Pharaons - Repost

Posted By: TimMa
National Geographic : Égypte, Les Secrets des Pharaons - Repost

National Geographic : Égypte, Les Secrets des Pharaons - Repost
2003 | French | DVD-Rip | AVI | 512x368 | XviD 754 Kbps 25.000 fps | MP3 128 Kbps | Lenght: 00:56:23 | 360.9 Mb
Genre: Documentary | Studio: StudioCanal | ASIN: B00007K5JF | Subtitles: No

Qui a construit des pyramides ? Quels étaient les secrets de la momification ? Quels trésors étaient choisis pour le passage et la vie dans l'au-delà, et pourquoi ? Depuis des siècles, les pharaons d'Égypte ont gardé leur secret' jusqu'à aujourd'hui. Grâce aux études des archéologues, découvrez les mystères de la construction des pyramides. Suivez les scientifiques dans la découverte des méthodes qui permettaient la conservation des corps des pharaons. Vous assisterez aussi à la reconstitution de l'ancien rituel de momification. Enfin, ne manquez pas une scène extraordinaire : la découverte de l'ancienne chambre souterraine qui abrite le tombeau du pharaon Khéops : un magnifique vaisseau pour traverser l'éternité.
General
Complete name : D:\My Documents\secretphar\National Geographic (Les 25 Plus Beaux Films) 08 Égypte, Les Secrets des Pharaons .avi
Format : AVI
Format/Info : Audio Video Interleave
File size : 360 MiB
Duration : 56mn 23s
Overall bit rate : 892 Kbps
Writing application : FairUse Wizard - http://fairusewizard.com
Writing library : The best and REALLY easy backup tool

Video
ID : 0
Format : MPEG-4 Visual
Format profile : Advanced Simple@L5
Format settings, BVOP : 1
Format settings, QPel : No
Format settings, GMC : No warppoints
Format settings, Matrix : Default (MPEG)
Muxing mode : Packed bitstream
Codec ID : XVID
Codec ID/Hint : XviD
Duration : 56mn 23s
Bit rate : 754 Kbps
Width : 512 pixels
Height : 368 pixels
Display aspect ratio : 1.391
Frame rate : 25.000 fps
Color space : YUV
Chroma subsampling : 4:2:0
Bit depth : 8 bits
Scan type : Progressive
Compression mode : Lossy
Bits/(Pixel*Frame) : 0.160
Stream size : 304 MiB (85%)
Writing library : XviD 1.2.0.dev47 (UTC 2006-11-01)

Audio
ID : 1
Format : MPEG Audio
Format version : Version 1
Format profile : Layer 3
Mode : Joint stereo
Mode extension : MS Stereo
Codec ID : 55
Codec ID/Hint : MP3
Duration : 56mn 23s
Bit rate mode : Constant
Bit rate : 128 Kbps
Channel(s) : 2 channels
Sampling rate : 48.0 KHz
Compression mode : Lossy
Stream size : 51.6 MiB (14%)
Alignment : Aligned on interleaves
Interleave, duration : 40 ms (1.00 video frame)
Interleave, preload duration : 504 ms
Writing library : LAME3.97b
Encoding settings : -m j -V 4 -q 2 -lowpass 17 -b 128
National Geographic : Égypte, Les Secrets des Pharaons - Repost
National Geographic : Égypte, Les Secrets des Pharaons - Repost

National Geographic : Égypte, Les Secrets des Pharaons - Repost