PBS - POV: Seven Songs for a Long Life (2017)

Posted By: notbanned
PBS - POV: Seven Songs for a Long Life (2017)

PBS - POV: Seven Songs for a Long Life (2017)
HDTV | 1280x720 | .MKV/AVC @ 2908 Kbps | 53mn 40s | 1.26 GiB
Audio: English AC3 384 kbps, 2 channels | Subs: English
Genre: Documentary

Hospice care is rarely associated with singing and laughter, but at Strathcarron it's different. At this remarkable Scottish hospice center, patients face pain, uncertainty and the possibility of life's end with song and humor.


General
Unique ID : 224188449470166079506780384103880926129 (0xA8A91FF306AD7867A65DDD78593723B1)
Complete name : pov.s29e13.seven.songs.for.long.life.720p.mkv
Format : Matroska
Format version : Version 4 / Version 2
File size : 1.26 GiB
Duration : 53mn 40s
Overall bit rate : 3 359 Kbps

Video
ID : 1
Format : AVC
Format/Info : Advanced Video Codec
Format profile : High@L4.1
Format settings, CABAC : Yes
Format settings, ReFrames : 5 frames
Codec ID : V_MPEG4/ISO/AVC
Duration : 53mn 40s
Bit rate : 2 908 Kbps
Width : 1 280 pixels
Height : 720 pixels
Display aspect ratio : 16:9
Frame rate mode : Constant
Frame rate : 25.000 fps
Color space : YUV
Chroma subsampling : 4:2:0
Bit depth : 8 bits
Scan type : Progressive
Bits/(Pixel*Frame) : 0.126
Stream size : 1.09 GiB (87%)
Writing library : x264 core 148 r2762 90a61ec
Encoding settings : cabac=1 / ref=5 / deblock=1:0:0 / analyse=0x3:0x113 / me=hex / subme=8 / psy=1 / psy_rd=1.00:0.00 / mixed_ref=1 / me_range=16 / chroma_me=1 / trellis=2 / 8x8dct=1 / cqm=0 / deadzone=21,11 / fast_pskip=1 / chroma_qp_offset=-2 / threads=12 / lookahead_threads=2 / sliced_threads=0 / nr=0 / decimate=1 / interlaced=0 / bluray_compat=0 / constrained_intra=0 / bframes=3 / b_pyramid=2 / b_adapt=1 / b_bias=0 / direct=3 / weightb=1 / open_gop=0 / weightp=2 / keyint=250 / keyint_min=25 / scenecut=40 / intra_refresh=0 / rc_lookahead=50 / rc=crf / mbtree=1 / crf=18.0 / qcomp=0.60 / qpmin=0 / qpmax=69 / qpstep=4 / ip_ratio=1.40 / aq=1:1.00
Default : Yes
Forced : No

Audio
ID : 2
Format : AC-3
Format/Info : Audio Coding 3
Mode extension : CM (complete main)
Format settings, Endianness : Big
Codec ID : A_AC3
Duration : 53mn 40s
Bit rate mode : Constant
Bit rate : 384 Kbps
Channel(s) : 2 channels
Channel positions : Front: L R
Sampling rate : 48.0 KHz
Compression mode : Lossy
Stream size : 147 MiB (11%)
Language : English
Default : Yes
Forced : No

Text
ID : 3
Format : UTF-8
Codec ID : S_TEXT/UTF8
Codec ID/Info : UTF-8 Plain Text
Language : English
Default : No
Forced : No


Screenshots:

PBS - POV: Seven Songs for a Long Life (2017)

PBS - POV: Seven Songs for a Long Life (2017)

PBS - POV: Seven Songs for a Long Life (2017)

PBS - POV: Seven Songs for a Long Life (2017)