Revolution: New Art for a New World (2016)

Posted By: notbanned
Jean-Philippe Rameau: Platée - Minkowski (DVD)

Revolution: New Art for a New World (2016)
DVDRip | 720x376 | .MKV/AVC @ 739 Kbps | 1 h 22 min | 509 MiB
Audio: English AAC 126 kbps, 2 channels | Subs: None
Genre: Documentary | History

Directed by acclaimed filmmaker Margy Kinmonth, Revolution: New Art for a New World is a bold and exciting feature documentary that encapsulates a momentous period in the history of Russia and the Russian Avant-Garde. Drawing on the collections of major Russian institutions, contributions from contemporary artists, curators and performers and personal testimony from the descendants of those involved, the film brings the artists of the Russian Avant-Garde to life. It tells the stories of artists like Chagall, Kandinsky and Malevich - pioneers who flourished in response to the challenge of building a new art for a new world, only to be broken by implacable authority after 15 short years and silenced by Stalin's Socialist Realism. Yet these remarkable artworks survived and the Russian Avant-Garde continues to exert an influence over contemporary art movements. Revolution: New Art for a New World confirms this; exploring the fascination that these colourful paintings, inventive sculptures.
More info


General
Unique ID : 203067350053832724287278272684472325493 (0x98C559595949734482DCB3034A46D575)
Complete name : rnanwd.mkv
Format : Matroska
Format version : Version 4 / Version 2
File size : 509 MiB
Duration : 1 h 22 min
Overall bit rate : 867 kb/s

Video
ID : 1
Format : AVC
Format/Info : Advanced Video Codec
Format profile : High@L3.1
Format settings, CABAC : Yes
Format settings, ReFrames : 5 frames
Codec ID : V_MPEG4/ISO/AVC
Duration : 1 h 22 min
Bit rate : 739 kb/s
Width : 720 pixels
Height : 376 pixels
Display aspect ratio : 1.915
Frame rate mode : Constant
Frame rate : 25.000 FPS
Color space : YUV
Chroma subsampling : 4:2:0
Bit depth : 8 bits
Scan type : Progressive
Bits/(Pixel*Frame) : 0.109
Stream size : 434 MiB (85%)
Writing library : x264 core 152 r2851 ba24899
Encoding settings : cabac=1 / ref=5 / deblock=1:0:0 / analyse=0x3:0x113 / me=umh / subme=8 / psy=1 / psy_rd=1.00:0.00 / mixed_ref=1 / me_range=16 / chroma_me=1 / trellis=2 / 8x8dct=1 / cqm=0 / deadzone=21,11 / fast_pskip=1 / chroma_qp_offset=-2 / threads=12 / lookahead_threads=2 / sliced_threads=0 / nr=0 / decimate=1 / interlaced=0 / bluray_compat=0 / constrained_intra=0 / bframes=3 / b_pyramid=2 / b_adapt=1 / b_bias=0 / direct=3 / weightb=1 / open_gop=0 / weightp=2 / keyint=250 / keyint_min=25 / scenecut=40 / intra_refresh=0 / rc_lookahead=50 / rc=crf / mbtree=1 / crf=19.0 / qcomp=0.60 / qpmin=0 / qpmax=69 / qpstep=4 / ip_ratio=1.40 / aq=1:1.00
Default : Yes
Forced : No

Audio
ID : 2
Format : AAC
Format/Info : Advanced Audio Codec
Format profile : LC
Codec ID : A_AAC
Duration : 1 h 22 min
Bit rate : 126 kb/s
Channel(s) : 2 channels
Channel positions : Front: L R
Sampling rate : 48.0 kHz
Frame rate : 46.875 FPS (1024 spf)
Compression mode : Lossy
Delay relative to video : 9 ms
Stream size : 73.9 MiB (15%)
Language : English
Default : Yes
Forced : No

Menu
00:00:00.000 : en:Chapter 01
00:02:45.120 : en:Chapter 02
00:08:21.600 : en:Chapter 03
00:13:48.000 : en:Chapter 04
00:20:57.600 : en:Chapter 05
00:28:39.840 : en:Chapter 06
00:35:51.360 : en:Chapter 07
00:43:36.480 : en:Chapter 08
00:49:53.280 : en:Chapter 09
00:57:58.560 : en:Chapter 10
01:08:18.240 : en:Chapter 11
01:18:08.640 : en:Chapter 12


Screenshots:

Jean-Philippe Rameau: Platée - Minkowski (DVD)

Jean-Philippe Rameau: Platée - Minkowski (DVD)

Jean-Philippe Rameau: Platée - Minkowski (DVD)

Jean-Philippe Rameau: Platée - Minkowski (DVD)