(Fr5) Terriers, garde-manger et nids douillets (2011)

Posted By: Morocco
(Fr5) Terriers, garde-manger et nids douillets (2011)

(Fr5) Terriers, garde-manger et nids douillets (2011)
TNT-Rip by Clo2 | French | 49min | 608 x 344 | 25.000 fps | Avi | MPEG-4 XviD @ 794 Kbps | MP3 @ 112 Kbps | 323 MB
Genre : Documentaire

Certains construisent un abri douillet loin des regards et des prédateurs, souvent sous forme de terriers, et d'autres des nids aux couleurs châtoyantes pour s'attirer les faveurs d'une femelle.

Certains sont d'infatigables bâtisseurs, d'autres d'incorrigibles squatteurs. Les rongeurs, comme les castors ou les chiens de prairies, conçoivent des galeries de terriers vastes et complexes, au point même d'accueillir des locataires.

Ainsi, chouettes, lièvres, furets et serpents profitent de l'ingéniosité des chiens de prairie, mais aussi de leur vigilance 'policière' les alertant de la présence de prédateurs.

L'isolement n'est jamais une protection. Au contraire, le nombre fait la force, comme en témoignent les fourmillières et les termitières, véritables mégalopoles, plus peuplées que Paris ou Londres.

Format : AVI
Format/Info : Audio Video Interleave
File size : 323 MiB
Duration : 49mn 15s
Overall bit rate : 916 Kbps
Writing application : VirtualDubMod 1.5.10.3 Fr | www.virtualdub-fr.org || (build 2550/release)
Writing library : VirtualDubMod build 2550/release

Video
ID : 0
Format : MPEG-4 Visual
Format profile : Advanced Simple@L5
Format settings, BVOP : 2
Format settings, QPel : No
Format settings, GMC : No warppoints
Format settings, Matrix : Default (H.263)
Muxing mode : Packed bitstream
Codec ID : XVID
Codec ID/Hint : XviD
Duration : 49mn 15s
Bit rate : 794 Kbps
Width : 608 pixels
Height : 344 pixels
Display aspect ratio : 16:9
Frame rate : 25.000 fps
Color space : YUV
Chroma subsampling : 4:2:0
Bit depth : 8 bits
Scan type : Progressive
Compression mode : Lossy
Bits/(Pixel*Frame) : 0.152
Stream size : 280 MiB (87%)
Writing library : XviD 57

Audio
ID : 1
Format : MPEG Audio
Format version : Version 1
Format profile : Layer 3
Mode : Joint stereo
Mode extension : MS Stereo
Codec ID : 55
Codec ID/Hint : MP3
Duration : 49mn 15s
Bit rate mode : Constant
Bit rate : 112 Kbps
Channel(s) : 2 channels
Sampling rate : 48.0 KHz
Compression mode : Lossy
Stream size : 39.5 MiB (12%)
Alignment : Aligned on interleaves
Interleave, duration : 40 ms (1.00 video frame)
Interleave, preload duration : 504 ms
Writing library : LAME3.98r
Encoding settings : -m j -V 4 -q 3 -lowpass 15.6 -b 112


(Fr5) Terriers, garde-manger et nids douillets (2011)

(Fr5) Terriers, garde-manger et nids douillets (2011)

(Fr5) Terriers, garde-manger et nids douillets (2011)

No Pass ;)

Un merci ?

D'autres documentaires ? >> Listing des documentaires