Subcategories

Channel 5 - The Adele Story (2016)

Posted By: notbanned
Channel 5 - The Adele Story (2016)

Channel 5 - The Adele Story (2016)
HDTV | 1280x720 | .MKV/AVC @ 1854 Kbps | 1h 7mn | 1007 MiB
Audio: English MP2 192 kbps, 2 channels | Subs: None
Genre: Documentary

Documentary charting the remarkable career trajectory of Adele Adkins, the pop and soul singer who rose from humble beginning in Tottenham to become one of the biggest stars of the modern music industry. Now popular enough to warrant going by her forename only, Adele's interest in music was encouraged by her mother from an early age. Winning a place at the Brit School in Croydon, Adele first shot into the public eye when her friend uploaded a demo to MySpace in 2006, and by the time she graduated, the singer had already secured a record deal.


General
Unique ID : 0 (0x0)
Complete name : the.adele.story.720p.mkv
Format : Matroska
Format version : Version 4 / Version 2
File size : 1 007 MiB
Duration : 1h 7mn
Overall bit rate : 2 088 Kbps

Video
ID : 1
Format : AVC
Format/Info : Advanced Video Codec
Format profile : High@L4.1
Format settings, CABAC : Yes
Format settings, ReFrames : 5 frames
Codec ID : V_MPEG4/ISO/AVC
Duration : 1h 7mn
Bit rate : 1 854 Kbps
Width : 1 280 pixels
Height : 720 pixels
Display aspect ratio : 16:9
Frame rate mode : Constant
Frame rate : 50.000 fps
Color space : YUV
Chroma subsampling : 4:2:0
Bit depth : 8 bits
Scan type : Progressive
Bits/(Pixel*Frame) : 0.040
Stream size : 895 MiB (89%)
Writing library : x264 core 148 r2744 b97ae06
Encoding settings : cabac=1 / ref=5 / deblock=1:0:0 / analyse=0x3:0x113 / me=hex / subme=8 / psy=1 / psy_rd=1.00:0.00 / mixed_ref=1 / me_range=16 / chroma_me=1 / trellis=2 / 8x8dct=1 / cqm=0 / deadzone=21,11 / fast_pskip=1 / chroma_qp_offset=-2 / threads=12 / lookahead_threads=2 / sliced_threads=0 / nr=0 / decimate=1 / interlaced=0 / bluray_compat=0 / constrained_intra=0 / bframes=3 / b_pyramid=2 / b_adapt=1 / b_bias=0 / direct=3 / weightb=1 / open_gop=0 / weightp=2 / keyint=250 / keyint_min=25 / scenecut=40 / intra_refresh=0 / rc_lookahead=50 / rc=crf / mbtree=1 / crf=21.0 / qcomp=0.60 / qpmin=0 / qpmax=69 / qpstep=4 / ip_ratio=1.40 / aq=1:1.00
Language : English
Default : Yes
Forced : No
Color range : Limited
Matrix coefficients : BT.709

Audio
ID : 2
Format : MPEG Audio
Format version : Version 1
Format profile : Layer 2
Codec ID : A_MPEG/L2
Codec ID/Hint : MP2
Duration : 1h 7mn
Bit rate mode : Constant
Bit rate : 192 Kbps
Channel(s) : 2 channels
Sampling rate : 48.0 KHz
Compression mode : Lossy
Delay relative to video : 19ms
Stream size : 92.6 MiB (9%)
Language : English
Default : Yes
Forced : No


Screenshots:

Channel 5 - The Adele Story (2016)

Channel 5 - The Adele Story (2016)

Channel 5 - The Adele Story (2016)

Channel 5 - The Adele Story (2016)