BBC - The Ganges with Sue Perkins (2017)

Posted By: notbanned
BBC - The Ganges with Sue Perkins (2017)

BBC - The Ganges with Sue Perkins (2017)
HDTV | 1280x720 | .MKV/AVC @ 3135 Kbps | 3x~58min | 3.83 GiB
Audio: English AC3 192 kbps, 2 channels | Subs: None
Genre: Documentary

Sue Perkins undertakes an epic, personal journey to the source of India's Ganges river in the Himalayas, meeting hermits and holy men to understand the sacred nature of this river.
Episode 1
Sue Perkins goes on an extraordinary journey, spanning over 1,500 miles, from the source of the Ganges high in the Himalayas to the Bay of Bengal. She travels through some of the most extraordinary, chaotic and exciting places on earth, exploring the lives and landscapes of modern India at this crucial point in its history.

Episode 2
In this second episode, Sue is halfway down the Ganges in the ancient city of Varanasi, a place which, for India's 950 million Hindus, has a unique significance. Sue immerses herself into the complex life of Varanasi, where the power of the Ganges is at its greatest and where life and death exist side by side. But she also discovers that it is here that the river faces its biggest challenges.

Episode 3
Sue's first stop is the ancient city of Patna, capital of Bihar state, along the banks of the Ganges. It was once the centre of the British Empire's lucrative opium trade. Now that the imperial drug lords have left, Patna produces something far more intoxicating - education. Sue visits the Women's Industrial Training College, a girls-only college teaching young women to be engineers. She hangs out with some of the students, and they tell her of their dreams to build bridges and drive trains all over the world.


General
Unique ID : 0 (0x0)
Complete name : the.ganges.with.sue.perkins.s01e01.720p.mkv
Format : Matroska
Format version : Version 4 / Version 2
File size : 1.38 GiB
Duration : 58 min 0 s
Overall bit rate : 3 395 kb/s

Video
ID : 1
Format : AVC
Format/Info : Advanced Video Codec
Format profile : High@L4.1
Format settings, CABAC : Yes
Format settings, ReFrames : 5 frames
Codec ID : V_MPEG4/ISO/AVC
Duration : 58 min 0 s
Bit rate : 3 135 kb/s
Width : 1 280 pixels
Height : 720 pixels
Display aspect ratio : 16:9
Frame rate mode : Constant
Frame rate : 25.000 FPS
Color space : YUV
Chroma subsampling : 4:2:0
Bit depth : 8 bits
Scan type : Progressive
Bits/(Pixel*Frame) : 0.136
Stream size : 1.27 GiB (92%)
Writing library : x264 core 152 r2851 ba24899
Encoding settings : cabac=1 / ref=5 / deblock=1:0:0 / analyse=0x3:0x113 / me=hex / subme=8 / psy=1 / psy_rd=1.00:0.00 / mixed_ref=1 / me_range=16 / chroma_me=1 / trellis=2 / 8x8dct=1 / cqm=0 / deadzone=21,11 / fast_pskip=1 / chroma_qp_offset=-2 / threads=12 / lookahead_threads=2 / sliced_threads=0 / nr=0 / decimate=1 / interlaced=0 / bluray_compat=0 / constrained_intra=0 / bframes=3 / b_pyramid=2 / b_adapt=1 / b_bias=0 / direct=3 / weightb=1 / open_gop=0 / weightp=2 / keyint=250 / keyint_min=25 / scenecut=40 / intra_refresh=0 / rc_lookahead=50 / rc=crf / mbtree=1 / crf=20.0 / qcomp=0.60 / qpmin=0 / qpmax=69 / qpstep=4 / ip_ratio=1.40 / aq=1:1.00
Language : English
Default : Yes
Forced : No
Color range : Limited
Matrix coefficients : BT.709

Audio
ID : 2
Format : AC-3
Format/Info : Audio Coding 3
Format settings, Endianness : Big
Codec ID : A_AC3
Duration : 58 min 0 s
Bit rate mode : Constant
Bit rate : 192 kb/s
Channel(s) : 2 channels
Channel positions : Front: L R
Sampling rate : 48.0 kHz
Frame rate : 31.250 FPS (1536 spf)
Bit depth : 16 bits
Compression mode : Lossy
Delay relative to video : -1 s 940 ms
Stream size : 79.7 MiB (6%)
Language : English
Service kind : Complete Main
Default : Yes
Forced : No


Screenshots:

BBC - The Ganges with Sue Perkins (2017)

BBC - The Ganges with Sue Perkins (2017)

BBC - The Ganges with Sue Perkins (2017)

BBC - The Ganges with Sue Perkins (2017)