The Pursuit: 50 Years In The Fight for LGBT Rights (2016)

Posted By: notbanned
The Pursuit: 50 Years In The Fight for LGBT Rights (2016)

The Pursuit: 50 Years In The Fight for LGBT Rights (2016)
HDTV | 1280x720 | .MKV/AVC @ 3953 Kbps | 56mn 21s | 1.74 GiB
Audio: English AC3 384 kbps, 2 channels | Subs: English
Genre: Documentary

Independence Visitor Center Corporation will collaborate with WHYY and Equality Forum to produce The Pursuit: 50 Years In The Fight for LGBT Rights, a documentary film project that will illuminate the 50-year history and progress of the LGBTQ civil rights movement. The film will highlight the powerful experiences of Gay Rights movement pioneers and feature interviews, archival images, and footage of such leading LGBTQ figures as Michael Palumbaro, founding member of the Gay Activist Alliance, and John James who marched in the first 1965 peaceful demonstrations at Independence Hall. Both the persistent discrimination against and the triumph of earned tolerance of the LGBTQ community will be explored through footage of 40 acclaimed LGBTQ activists, organization leaders, celebrities, and original protesters who will reenact the demonstrations at Independence Hall in July of 2015, in recognition of the 50th anniversary of the Annual Reminders.


General
Unique ID : 247270045000392073818183974835180187631 (0xBA067A78875F08AE82340EA46BAEAFEF)
Complete name : the.pursuit.50.years.in.the.fight.for.lbgt.rights.mkv
Format : Matroska
Format version : Version 4 / Version 2
File size : 1.74 GiB
Duration : 56mn 21s
Overall bit rate : 4 426 Kbps

Video
ID : 1
Format : AVC
Format/Info : Advanced Video Codec
Format profile : High@L4.1
Format settings, CABAC : Yes
Format settings, ReFrames : 5 frames
Codec ID : V_MPEG4/ISO/AVC
Duration : 56mn 21s
Bit rate : 3 953 Kbps
Width : 1 280 pixels
Height : 720 pixels
Display aspect ratio : 16:9
Frame rate mode : Constant
Frame rate : 60.000 fps
Original frame rate : 59.940 fps
Color space : YUV
Chroma subsampling : 4:2:0
Bit depth : 8 bits
Scan type : Progressive
Bits/(Pixel*Frame) : 0.071
Stream size : 1.56 GiB (89%)
Writing library : x264 core 148 r2694 3b70645
Encoding settings : cabac=1 / ref=5 / deblock=1:0:0 / analyse=0x3:0x113 / me=umh / subme=8 / psy=1 / psy_rd=1.00:0.00 / mixed_ref=1 / me_range=16 / chroma_me=1 / trellis=1 / 8x8dct=1 / cqm=0 / deadzone=21,11 / fast_pskip=1 / chroma_qp_offset=-2 / threads=12 / lookahead_threads=2 / sliced_threads=0 / nr=0 / decimate=1 / interlaced=0 / bluray_compat=0 / constrained_intra=0 / bframes=3 / b_pyramid=2 / b_adapt=2 / b_bias=0 / direct=3 / weightb=1 / open_gop=0 / weightp=2 / keyint=250 / keyint_min=25 / scenecut=40 / intra_refresh=0 / rc_lookahead=50 / rc=crf / mbtree=1 / crf=20.0 / qcomp=0.60 / qpmin=0 / qpmax=69 / qpstep=4 / ip_ratio=1.40 / aq=1:1.00
Default : Yes
Forced : No

Audio
ID : 2
Format : AC-3
Format/Info : Audio Coding 3
Mode extension : CM (complete main)
Format settings, Endianness : Big
Codec ID : A_AC3
Duration : 56mn 21s
Bit rate mode : Constant
Bit rate : 384 Kbps
Channel(s) : 2 channels
Channel positions : Front: L R
Sampling rate : 48.0 KHz
Compression mode : Lossy
Stream size : 155 MiB (9%)
Language : English
Default : Yes
Forced : No

Text
ID : 3
Format : UTF-8
Codec ID : S_TEXT/UTF8
Codec ID/Info : UTF-8 Plain Text
Language : English
Default : No
Forced : No


Screenshots:

The Pursuit: 50 Years In The Fight for LGBT Rights (2016)

The Pursuit: 50 Years In The Fight for LGBT Rights (2016)

The Pursuit: 50 Years In The Fight for LGBT Rights (2016)

The Pursuit: 50 Years In The Fight for LGBT Rights (2016)