Tags
Language
Tags

HC. - Unidentified: Inside America's UFO Investigation (2019)

Posted By: notbanned
720p (HD) / WEB-DL IMDb
HC. - Unidentified: Inside America's UFO Investigation (2019)

HC. - Unidentified: Inside America's UFO Investigation (2019)
WEB-DL | 1280x720 | .MKV/AVC @ 2489 Kbps | 6x~41min | 4.58 GiB
Audio: English AAC 128 kbps, 2 channels | Subs: None
Genre: Documentary

In December of 2017, The New York Times published a stunning front-page exposé about the Pentagon’s mysterious UFO program, the Advanced Aerospace Threat Identification Program (AATIP). Featuring an interview with a former military intelligence official and Special Agent In-Charge, Luis Elizondo, who confirmed the existence of the hidden government program, the controversial story was the focus of worldwide attention. Previously run by Elizondo, AATIP was created to research and investigate Unidentified Aerial Phenomena (UAP) including numerous videos of reported encounters, three of which were released to a shocked public in 2017. Elizondo resigned after expressing to the government that these UAPs could pose a major threat to our national security and not enough was being done to deal with them or address our potential vulnerabilities.

Now, as a part of HISTORY’s groundbreaking new six-part, one-hour limited series UNIDENTIFIED: INSIDE AMERICA’S UFO INVESTIGATION, Elizondo is speaking out for the first time with Tom DeLonge, co-founder and President of To The Stars Academy of Arts & Science and Chris Mellon, former Deputy Assistant Secretary of Defense and Intelligence, to expose a series of startling encounters and embark on fascinating new investigations that will urge the public to ask questions and look for answers.

The series will reveal newly authenticated evidence and footage, interviews from eyewitnesses and former military personnel who have never spoken out before, and extensive breakthroughs in understanding the technology behind these unknown phenomena in our skies.

General
Unique ID : 256247724909551978904524903888983957452 (0xC0C78443BA42EF1E27990A7E3B7C1FCC)
Complete name : unidentified.inside.americas.ufo.investigation.s01e01.720p.mkv
Format : Matroska
Format version : Version 4 / Version 2
File size : 780 MiB
Duration : 41 min 37 s
Overall bit rate : 2 619 kb/s

Video
ID : 1
Format : AVC
Format/Info : Advanced Video Codec
Format profile : Main@L3.1
Format settings, CABAC : Yes
Format settings, ReFrames : 4 frames
Codec ID : V_MPEG4/ISO/AVC
Duration : 41 min 37 s
Bit rate : 2 489 kb/s
Width : 1 280 pixels
Height : 720 pixels
Display aspect ratio : 16:9
Frame rate mode : Constant
Frame rate : 23.976 (24000/1001) FPS
Color space : YUV
Chroma subsampling : 4:2:0
Bit depth : 8 bits
Scan type : Progressive
Bits/(Pixel*Frame) : 0.113
Stream size : 741 MiB (95%)
Writing library : Zencoder Video Encoding System
Default : Yes
Forced : No

Audio
ID : 2
Format : AAC
Format/Info : Advanced Audio Codec
Format profile : LC
Codec ID : A_AAC
Duration : 41 min 37 s
Bit rate : 128 kb/s
Channel(s) : 2 channels
Channel positions : Front: L R
Sampling rate : 48.0 kHz
Frame rate : 46.875 FPS (1024 spf)
Compression mode : Lossy
Stream size : 38.1 MiB (5%)
Default : Yes
Forced : No


Screenshots:

HC. - Unidentified: Inside America's UFO Investigation (2019)

HC. - Unidentified: Inside America's UFO Investigation (2019)

HC. - Unidentified: Inside America's UFO Investigation (2019)

HC. - Unidentified: Inside America's UFO Investigation (2019)