(Arte) La voie du Tao - Ou l'art de l'immortalité (2010)

Posted By: Morocco
(Arte) La voie du Tao - Ou l'art de l'immortalité (2010)

(Arte) La voie du Tao - Ou l'art de l'immortalité (2010)
TNT-Rip by Clo2 | French | 59min | 640 x 368 | 25.000 fps | Avi | MPEG-4 XviD @ 894 Kbps | MP3 @ 112 Kbps | 427 MB
Genre : Documentaire

Ce documentaire nous mène dans les lieux mêmes où le taoïsme a pris naissance et auprès de ses adeptes, dans les centres de dévotion. Tout au long de ce voyage, la beauté mystérieuse de l'art chinois, la magie des paysages et des temples, la poésie des aphorismes et la ferveur des fidèles nous font sentir la force d'inspiration inégalée que représente le taoïsme pour les Chinois depuis 3 000 ans. En prenant pour guide une jeune Française venue en Chine s'initier auprès d'un maître, le réalisateur nous plonge au coeur de ces pratiques et rituels ancestraux qui ont su s'adapter à la modernité.

La voie et la vertu

À Pékin, nous découvrons le temple des Nuages Blancs, centre officiel du taoïsme en Chine. C'est une ruche où se croisent toutes les facettes du taoïsme : étude des textes anciens, pratique de la calligraphie et de la peinture, apprentissage de la méditation et des techniques du souffle, médecine chinoise… Puis nous partons dans le centre de la Chine, dans la montagne où le légendaire Lao Tseu, figure divinisée du vieux sage, aurait dicté le Tao Te King, le "Livre de la voie et de la vertu". De temple en temple, de montagne sacrée en montagne sacrée, le film nous mène à la rencontre de maîtres et d'ermites qui aspirent au tao et nous fait sentir de l'intérieur les principales dimensions de cette religion sans dogme. Vision du monde, culture, état d'esprit autant que religion, le taoïsme questionne le rapport de l'homme à l'univers et vise à retrouver "l'unité primordiale d'avant toute distinction, à laquelle il faut revenir pour renaître". C'est ce mouvement de l'homme vers les puissances cosmiques, si contraire à la vision occidentale, qui nous est ici rendu accessible.

Format : AVI
Format/Info : Audio Video Interleave
File size : 427 MiB
Duration : 58mn 48s
Overall bit rate : 1 016 Kbps
Writing application : VirtualDubMod 1.5.10.3 Fr | www.virtualdub-fr.org || (build 2550/release)
Writing library : VirtualDubMod build 2550/release

Video
ID : 0
Format : MPEG-4 Visual
Format profile : Advanced Simple@L5
Format settings, BVOP : 2
Format settings, QPel : No
Format settings, GMC : No warppoints
Format settings, Matrix : Default (H.263)
Muxing mode : Packed bitstream
Codec ID : XVID
Codec ID/Hint : XviD
Duration : 58mn 48s
Bit rate : 894 Kbps
Width : 640 pixels
Height : 368 pixels
Display aspect ratio : 1.739
Frame rate : 25.000 fps
Color space : YUV
Chroma subsampling : 4:2:0
Bit depth : 8 bits
Scan type : Progressive
Compression mode : Lossy
Bits/(Pixel*Frame) : 0.152
Stream size : 376 MiB (88%)
Writing library : XviD 1.2.1 (UTC 2008-12-04)

Audio
ID : 1
Format : MPEG Audio
Format version : Version 1
Format profile : Layer 3
Mode : Joint stereo
Mode extension : MS Stereo
Codec ID : 55
Codec ID/Hint : MP3
Duration : 58mn 48s
Bit rate mode : Constant
Bit rate : 112 Kbps
Channel(s) : 2 channels
Sampling rate : 48.0 KHz
Compression mode : Lossy
Stream size : 47.1 MiB (11%)
Alignment : Split accross interleaves
Interleave, duration : 40 ms (1.00 video frame)
Interleave, preload duration : 500 ms


(Arte) La voie du Tao - Ou l'art de l'immortalité (2010)

(Arte) La voie du Tao - Ou l'art de l'immortalité (2010)

(Arte) La voie du Tao - Ou l'art de l'immortalité (2010)

(Arte) La voie du Tao - Ou l'art de l'immortalité (2010)

(Arte) La voie du Tao - Ou l'art de l'immortalité (2010)

No Pass ;)

Un merci ?

Pour toutes questions non liés à un post (ex : requête …) merci de m'envoyer un message privé !