We the Dreamers: Show Me Democracy (2018)

Posted By: notbanned
720p (HD) / HDTV
We the Dreamers: Show Me Democracy (2018)

We the Dreamers: Show Me Democracy (2018)
HDTV | 1280x720 | .MKV/AVC @ 2277 Kbps | 1 h 20 min | 1.40 GiB
Audio: English AC3 192 kbps, 2 channels | Subs: English
Genre: Documentary

As a part of Fuse’s We The Dreamers documentary series, Show Me Democracy depicts seven St. Louis college students as they take different approaches to demanding change.

General
Unique ID : 224746376519542312102085852176032086721 (0xA91493E06BEC67DDB76B5A9CA26E3AC1)
Complete name : we.the.dreamers.show.me.democracy.2018.720p.mkv
Format : Matroska
Format version : Version 4 / Version 2
File size : 1.40 GiB
Duration : 1 h 20 min
Overall bit rate : 2 471 kb/s

Video
ID : 1
Format : AVC
Format/Info : Advanced Video Codec
Format profile : High@L4.1
Format settings, CABAC : Yes
Format settings, ReFrames : 5 frames
Codec ID : V_MPEG4/ISO/AVC
Duration : 1 h 20 min
Bit rate : 2 277 kb/s
Width : 1 280 pixels
Height : 720 pixels
Display aspect ratio : 16:9
Frame rate mode : Constant
Frame rate : 23.976 (24000/1001) FPS
Color space : YUV
Chroma subsampling : 4:2:0
Bit depth : 8 bits
Scan type : Progressive
Bits/(Pixel*Frame) : 0.103
Stream size : 1.29 GiB (92%)
Writing library : x264 core 155 r2901 7d0ff22
Encoding settings : cabac=1 / ref=5 / deblock=1:0:0 / analyse=0x3:0x113 / me=hex / subme=8 / psy=1 / psy_rd=1.00:0.00 / mixed_ref=1 / me_range=16 / chroma_me=1 / trellis=2 / 8x8dct=1 / cqm=0 / deadzone=21,11 / fast_pskip=1 / chroma_qp_offset=-2 / threads=12 / lookahead_threads=2 / sliced_threads=0 / nr=0 / decimate=1 / interlaced=0 / bluray_compat=0 / constrained_intra=0 / bframes=3 / b_pyramid=2 / b_adapt=1 / b_bias=0 / direct=3 / weightb=1 / open_gop=0 / weightp=2 / keyint=250 / keyint_min=23 / scenecut=40 / intra_refresh=0 / rc_lookahead=50 / rc=crf / mbtree=1 / crf=20.0 / qcomp=0.60 / qpmin=0 / qpmax=69 / qpstep=4 / ip_ratio=1.40 / aq=1:1.00
Default : Yes
Forced : No

Audio
ID : 2
Format : AC-3
Format/Info : Audio Coding 3
Format settings, Endianness : Big
Codec ID : A_AC3
Duration : 1 h 20 min
Bit rate mode : Constant
Bit rate : 192 kb/s
Channel(s) : 2 channels
Channel positions : Front: L R
Sampling rate : 48.0 kHz
Frame rate : 31.250 FPS (1536 spf)
Bit depth : 16 bits
Compression mode : Lossy
Stream size : 111 MiB (8%)
Language : English
Service kind : Complete Main
Default : Yes
Forced : No

Text
ID : 3
Format : UTF-8
Codec ID : S_TEXT/UTF8
Codec ID/Info : UTF-8 Plain Text
Duration : 1 h 20 min
Bit rate : 143 b/s
Count of elements : 1950
Stream size : 85.4 KiB (0%)
Language : English
Default : No
Forced : No


Screenshots:

We the Dreamers: Show Me Democracy (2018)

We the Dreamers: Show Me Democracy (2018)

We the Dreamers: Show Me Democracy (2018)

We the Dreamers: Show Me Democracy (2018)