Subcategories

BBC: Who Would Hire You - Job Interviewing Videos - 8 Episodes (2005)

Posted By: ParRus
BBC: Who Would Hire You - Job Interviewing Videos -  8 Episodes (2005)

BBC: Who Would Hire You - Job Interviewing Videos
PDTV | 624 x 352 | .AVI/XviD @ 1036 Kbps | 03:43:56 | Audio: English MP3 128 kbps, 2 channels | 1.81 GB
Genre: Documentary

Business psychologist Dr Rob Yeung attempts to take people who are hopeless at job interviews and turn them into credible, confident candidates.
Episode 1X01:
Anthony's a shy man, and that makes him a disaster at a job interview, as we see when he's the weakest candidate for a job as a bailiff. In this new series, Anthony is sent on a three-day training course with psychologist Dr Rob Yeung with the aim of transforming him into an ideal jobseeker. Entertaining and inspirational.

Episode 1X02:
Business pyschologist Dr Rob Yeung attempts to take people who are hopeless at job interviews and turn them into credible, confident candidates. Serious-minded Jamie wants a job organising parties, but his interview technique is a complete disaster. Can Rob transform this laid back intellectual into an interview dynamo? Narrated by Gary Bakewell.

Episode 1X03:
Business pyschologist Dr Rob Yeung attempts to take people who are hopeless at job interviews and turn them into credible, confident candidates. Music student Owain Williams fancies himself as a trainee private detective, but has his cover blown as a man wedded to his armchair. Will Rob manage transform this sleepy student into a convincing candidate? Or will Owain sink back into a stupor? Narrated by Gary Bakewell.

Episode 1X04:
Business pyschologist Dr Rob Yeung attempts to take people who are hopeless at job interviews and turn them into credible, confident candidates. Fashion student Michelle Donnelly is desperate to fight her way into the fashion world - but the competition is tough! Can Rob really turn mousy Michelle into the go getting fashionista that she must become if she is to secure the job of her dreams? Narrated by Gary Bakewell.

Episode 1X05:
Business psychologist Dr Rob Yeung attempts to take people who are hopeless at job interviews and turn them into credible, confident candidates. Timid 19-year-old Kirsty's interview technique is amongst the worst Rob has ever seen.

Episode 1X06:
Business psychologist Dr Rob Yeung attempts to take people who are hopeless at job interviews and turn them into credible, confident candidates. After an excruciating interview for a luxury car sales job 19-year-old Ryan Hollands is definitely bottom of the trashcan. Will Rob ever be able to turn him from a quivering wreck into a man capable of landing any job?

Episode 1X07:
Business psychologist Dr Rob Yeung attempts to take people who are hopeless at job interviews and turn them into credible, confident candidates. After the collapse of Gary Snow's marriage and with it his career in the family business, he's desperate for a fresh start. But will Rob be able to convince him that interviews are a sales pitch, not a counselling session?

Episode 1X08:
Business psychologist Dr Rob Yeung attempts to take people who are hopeless at job interviews and turn them into credible, confident candidates. Theatre and film graduate Clare Ellis is desperate to get a job in the entertainment industry, but competition is tough. Can Rob really turn a girl who wouldn't say boo to a goose into a go-getting interview dynamo, capable of landing her dream job?

also You can look my other last: Documentary-posts

General
Complete name :who.would.hire.you.s01e02.avi
Format : AVI
Format/Info : Audio Video Interleave
File size : 233 MiB
Duration : 27mn 30s
Overall bit rate mode : Variable
Overall bit rate : 1 184 Kbps
Writing application : VirtualDubMod 1.5.4.1 (build 2178/release)
Writing library : VirtualDubMod build 2178/release

Video
ID : 0
Format : MPEG-4 Visual
Format profile : Advanced Simple@L5
Format settings, BVOP : 1
Format settings, QPel : No
Format settings, GMC : No warppoints
Format settings, Matrix : Custom
Codec ID : XVID
Codec ID/Hint : XviD
Duration : 27mn 30s
Bit rate : 1 036 Kbps
Width : 624 pixels
Height : 352 pixels
Display aspect ratio : 16:9
Frame rate : 25.000 fps
Color space : YUV
Chroma subsampling : 4:2:0
Bit depth : 8 bits
Scan type : Progressive
Compression mode : Lossy
Bits/(Pixel*Frame) : 0.189
Stream size : 204 MiB (88%)
Writing library : XviD 1.0.3 (UTC 2004-12-20)

Audio
ID : 1
Format : MPEG Audio
Format version : Version 1
Format profile : Layer 3
Mode : Joint stereo
Mode extension : MS Stereo
Codec ID : 55
Codec ID/Hint : MP3
Duration : 27mn 30s
Bit rate mode : Variable
Bit rate : 128 Kbps
Channel(s) : 2 channels
Sampling rate : 48.0 KHz
Compression mode : Lossy
Stream size : 26.5 MiB (11%)
Alignment : Aligned on interleaves
Interleave, duration : 24 ms (0.60 video frame)
Interleave, preload duration : 493 ms
Writing library : LAME3.96r
Encoding settings : -m j -V 4 -q 2 -lowpass 17.5 –abr 128
Screenshots

BBC: Who Would Hire You - Job Interviewing Videos -  8 Episodes (2005)

BBC: Who Would Hire You - Job Interviewing Videos -  8 Episodes (2005)

BBC: Who Would Hire You - Job Interviewing Videos -  8 Episodes (2005)

Exclusive eLearning, and eDucational Videos Check My ParRus-blogadd to bookmarks

BBC: Who Would Hire You - Job Interviewing Videos -  8 Episodes (2005)