Subcategories

BBC - World War Two: 1941 and the Man of Steel (2011)

Posted By: Tutorial
BBC - World War Two: 1941 and the Man of Steel (2011)

BBC - World War Two: 1941 and the Man of Steel (2011)
PDTV | 720 x 400 | .AVI/XviD @ 1397 Kbps | 1h 29mn | 979 MB
Audio: English AC-3 128 Kbps, 2 channels | Subs: None
Genre: Documentary, History, War

Marking the 70th anniversary of the Nazi invasion of the Soviet Union in 1941, historian Professor David Reynolds re-assesses Stalin's role in the life and death struggle between Germany and Russia in World War Two, which, he argues, was ultimately more critical for British survival than 'Our Finest Hour' in the Battle of Britain itself.
The name Stalin means 'man of steel', but Reynolds's penetrating new account reveals how the reality of Stalin's war in 1941 did not live up to that name. Travelling to Russian battlefield locations, he charts how Russia was almost annihilated within a few months as Stalin lurched from crisis to crisis, coming close to a nervous breakdown.
Reynolds shows how Stalin learnt to compromise in order to win, listening to his generals and downplaying communist ideology to appeal instead to the Russian people's nationalist fighting spirit. He also squares up to the terrible moral dilemma at the heart of World War Two. Using original telegrams and official documents, he looks afresh at Winston Churchill's controversial visit to Moscow in 1942 and re-examines how Britain and America were drawn into alliance with Stalin, a dictator almost as murderous as the Nazi enemy.

also You can look my other last: History-posts

General
Complete name : BBC.World.War.Two.1941.and.the.Man.of.Steel.avi
Format : AVI
Format/Info : Audio Video Interleave
File size : 979 MiB
Duration : 1 h 29 min
Overall bit rate : 1 533 kb/s

Video
ID : 0
Format : MPEG-4 Visual
Format profile : Advanced Simple@L5
Format settings, BVOP : 2
Format settings, QPel : No
Format settings, GMC : No warppoints
Format settings, Matrix : Default (H.263)
Codec ID : XVID
Codec ID/Hint : XviD
Duration : 1 h 29 min
Bit rate : 1 397 kb/s
Width : 720 pixels
Height : 400 pixels
Display aspect ratio : 16:9
Frame rate : 25.000 FPS
Color space : YUV
Chroma subsampling : 4:2:0
Bit depth : 8 bits
Scan type : Progressive
Compression mode : Lossy
Bits/(Pixel*Frame) : 0.194
Stream size : 892 MiB (91%)
Writing library : XviD 1.2.1 (UTC 2008-12-04)

Audio
ID : 1
Format : AC-3
Format/Info : Audio Coding 3
Format settings, Endianness : Big
Codec ID : 2000
Duration : 1 h 29 min
Bit rate mode : Constant
Bit rate : 128 kb/s
Channel(s) : 2 channels
Channel positions : Front: L R
Sampling rate : 48.0 kHz
Frame rate : 31.250 FPS (1536 spf)
Bit depth : 16 bits
Compression mode : Lossy
Stream size : 81.7 MiB (8%)
Alignment : Aligned on interleaves
Interleave, duration : 64 ms (1.60 video frames)
Interleave, preload duration : 192 ms
Title : Man of Steel PID 157d 2_0ch 48KHz 128Kbps DELAY 0ms
Service kind : Complete Main
Screenshots

BBC - World War Two: 1941 and the Man of Steel (2011)

BBC - World War Two: 1941 and the Man of Steel (2011)

BBC - World War Two: 1941 and the Man of Steel (2011)

BBC - World War Two: 1941 and the Man of Steel (2011)

BBC - World War Two: 1941 and the Man of Steel (2011)

BBC - World War Two: 1941 and the Man of Steel (2011)

BBC - World War Two: 1941 and the Man of Steel (2011)

Welcome to my blog - daily update!

BBC - World War Two: 1941 and the Man of Steel (2011)